  0
SECTION
  2
HEADER
  9
$ACADVER
  1
AC1015
  9
$ACADMAINTVER
 70
     6
  9
$DWGCODEPAGE
  3
ANSI_1252
  9
$INSBASE
 10
0.0
 20
0.0
 30
0.0
  9
$EXTMIN
 10
-0.00000000000011
 20
0.0
 30
0.0
  9
$EXTMAX
 10
297.0
 20
210.0000000000001
 30
0.0
  9
$LIMMIN
 10
0.0
 20
0.0
  9
$LIMMAX
 10
12.0
 20
9.0
  9
$ORTHOMODE
 70
     0
  9
$REGENMODE
 70
     1
  9
$FILLMODE
 70
     1
  9
$QTEXTMODE
 70
     0
  9
$MIRRTEXT
 70
     1
  9
$LTSCALE
 40
1.0
  9
$ATTMODE
 70
     1
  9
$TEXTSIZE
 40
0.2
  9
$TRACEWID
 40
0.05
  9
$TEXTSTYLE
  7
Standard
  9
$CLAYER
  8
0
  9
$CELTYPE
  6
ByLayer
  9
$CECOLOR
 62
   256
  9
$CELTSCALE
 40
1.0
  9
$DISPSILH
 70
     0
  9
$DIMSCALE
 40
1.0
  9
$DIMASZ
 40
0.18
  9
$DIMEXO
 40
0.0625
  9
$DIMDLI
 40
0.38
  9
$DIMRND
 40
0.0
  9
$DIMDLE
 40
0.0
  9
$DIMEXE
 40
0.18
  9
$DIMTP
 40
0.0
  9
$DIMTM
 40
0.0
  9
$DIMTXT
 40
0.18
  9
$DIMCEN
 40
0.09
  9
$DIMTSZ
 40
0.0
  9
$DIMTOL
 70
     0
  9
$DIMLIM
 70
     0
  9
$DIMTIH
 70
     1
  9
$DIMTOH
 70
     1
  9
$DIMSE1
 70
     0
  9
$DIMSE2
 70
     0
  9
$DIMTAD
 70
     0
  9
$DIMZIN
 70
     0
  9
$DIMBLK
  1

  9
$DIMASO
 70
     1
  9
$DIMSHO
 70
     1
  9
$DIMPOST
  1

  9
$DIMAPOST
  1

  9
$DIMALT
 70
     0
  9
$DIMALTD
 70
     2
  9
$DIMALTF
 40
25.4
  9
$DIMLFAC
 40
1.0
  9
$DIMTOFL
 70
     0
  9
$DIMTVP
 40
0.0
  9
$DIMTIX
 70
     0
  9
$DIMSOXD
 70
     0
  9
$DIMSAH
 70
     0
  9
$DIMBLK1
  1

  9
$DIMBLK2
  1

  9
$DIMSTYLE
  2
Standard
  9
$DIMCLRD
 70
     0
  9
$DIMCLRE
 70
     0
  9
$DIMCLRT
 70
     0
  9
$DIMTFAC
 40
1.0
  9
$DIMGAP
 40
0.09
  9
$DIMJUST
 70
     0
  9
$DIMSD1
 70
     0
  9
$DIMSD2
 70
     0
  9
$DIMTOLJ
 70
     1
  9
$DIMTZIN
 70
     0
  9
$DIMALTZ
 70
     0
  9
$DIMALTTZ
 70
     0
  9
$DIMUPT
 70
     0
  9
$DIMDEC
 70
     4
  9
$DIMTDEC
 70
     4
  9
$DIMALTU
 70
     2
  9
$DIMALTTD
 70
     2
  9
$DIMTXSTY
  7
Standard
  9
$DIMAUNIT
 70
     0
  9
$DIMADEC
 70
     0
  9
$DIMALTRND
 40
0.0
  9
$DIMAZIN
 70
     0
  9
$DIMDSEP
 70
    46
  9
$DIMATFIT
 70
     3
  9
$DIMFRAC
 70
     0
  9
$DIMLDRBLK
  1

  9
$DIMLUNIT
 70
     2
  9
$DIMLWD
 70
    -2
  9
$DIMLWE
 70
    -2
  9
$DIMTMOVE
 70
     0
  9
$LUNITS
 70
     2
  9
$LUPREC
 70
     4
  9
$SKETCHINC
 40
0.1
  9
$FILLETRAD
 40
0.5
  9
$AUNITS
 70
     0
  9
$AUPREC
 70
     0
  9
$MENU
  1
.
  9
$ELEVATION
 40
0.0
  9
$PELEVATION
 40
0.0
  9
$THICKNESS
 40
0.0
  9
$LIMCHECK
 70
     0
  9
$CHAMFERA
 40
0.5
  9
$CHAMFERB
 40
0.5
  9
$CHAMFERC
 40
1.0
  9
$CHAMFERD
 40
0.0
  9
$SKPOLY
 70
     0
  9
$TDCREATE
 40
2457163.637461423
  9
$TDUCREATE
 40
2457163.55412809
  9
$TDUPDATE
 40
2457163.637462141
  9
$TDUUPDATE
 40
2457163.554128808
  9
$TDINDWG
 40
0.0000000116
  9
$TDUSRTIMER
 40
0.0000000116
  9
$USRTIMER
 70
     1
  9
$ANGBASE
 50
0.0
  9
$ANGDIR
 70
     0
  9
$PDMODE
 70
     0
  9
$PDSIZE
 40
0.0
  9
$PLINEWID
 40
0.0
  9
$SPLFRAME
 70
     0
  9
$SPLINETYPE
 70
     6
  9
$SPLINESEGS
 70
     8
  9
$HANDSEED
  5
44A
  9
$SURFTAB1
 70
     6
  9
$SURFTAB2
 70
     6
  9
$SURFTYPE
 70
     6
  9
$SURFU
 70
     6
  9
$SURFV
 70
     6
  9
$UCSBASE
  2

  9
$UCSNAME
  2

  9
$UCSORG
 10
0.0
 20
0.0
 30
0.0
  9
$UCSXDIR
 10
1.0
 20
0.0
 30
0.0
  9
$UCSYDIR
 10
0.0
 20
1.0
 30
0.0
  9
$UCSORTHOREF
  2

  9
$UCSORTHOVIEW
 70
     0
  9
$UCSORGTOP
 10
0.0
 20
0.0
 30
0.0
  9
$UCSORGBOTTOM
 10
0.0
 20
0.0
 30
0.0
  9
$UCSORGLEFT
 10
0.0
 20
0.0
 30
0.0
  9
$UCSORGRIGHT
 10
0.0
 20
0.0
 30
0.0
  9
$UCSORGFRONT
 10
0.0
 20
0.0
 30
0.0
  9
$UCSORGBACK
 10
0.0
 20
0.0
 30
0.0
  9
$PUCSBASE
  2

  9
$PUCSNAME
  2

  9
$PUCSORG
 10
0.0
 20
0.0
 30
0.0
  9
$PUCSXDIR
 10
1.0
 20
0.0
 30
0.0
  9
$PUCSYDIR
 10
0.0
 20
1.0
 30
0.0
  9
$PUCSORTHOREF
  2

  9
$PUCSORTHOVIEW
 70
     0
  9
$PUCSORGTOP
 10
0.0
 20
0.0
 30
0.0
  9
$PUCSORGBOTTOM
 10
0.0
 20
0.0
 30
0.0
  9
$PUCSORGLEFT
 10
0.0
 20
0.0
 30
0.0
  9
$PUCSORGRIGHT
 10
0.0
 20
0.0
 30
0.0
  9
$PUCSORGFRONT
 10
0.0
 20
0.0
 30
0.0
  9
$PUCSORGBACK
 10
0.0
 20
0.0
 30
0.0
  9
$USERI1
 70
     0
  9
$USERI2
 70
     0
  9
$USERI3
 70
     0
  9
$USERI4
 70
     0
  9
$USERI5
 70
     0
  9
$USERR1
 40
18.1
  9
$USERR2
 40
0.0
  9
$USERR3
 40
0.0
  9
$USERR4
 40
0.0
  9
$USERR5
 40
0.0
  9
$WORLDVIEW
 70
     1
  9
$SHADEDGE
 70
     3
  9
$SHADEDIF
 70
    70
  9
$TILEMODE
 70
     1
  9
$MAXACTVP
 70
    64
  9
$PINSBASE
 10
0.0
 20
0.0
 30
0.0
  9
$PLIMCHECK
 70
     0
  9
$PEXTMIN
 10
1.00000000000000E+20
 20
1.00000000000000E+20
 30
1.00000000000000E+20
  9
$PEXTMAX
 10
-1.00000000000000E+20
 20
-1.00000000000000E+20
 30
-1.00000000000000E+20
  9
$PLIMMIN
 10
0.0
 20
0.0
  9
$PLIMMAX
 10
12.0
 20
9.0
  9
$UNITMODE
 70
     0
  9
$VISRETAIN
 70
     1
  9
$PLINEGEN
 70
     0
  9
$PSLTSCALE
 70
     1
  9
$TREEDEPTH
 70
  3020
  9
$CMLSTYLE
  2
Standard
  9
$CMLJUST
 70
     0
  9
$CMLSCALE
 40
1.0
  9
$PROXYGRAPHICS
 70
     1
  9
$MEASUREMENT
 70
     1
  9
$CELWEIGHT
370
    -1
  9
$ENDCAPS
280
     0
  9
$JOINSTYLE
280
     0
  9
$LWDISPLAY
290
     0
  9
$INSUNITS
 70
     4
  9
$HYPERLINKBASE
  1

  9
$STYLESHEET
  1

  9
$XEDIT
290
     1
  9
$CEPSNTYPE
380
     0
  9
$PSTYLEMODE
290
     1
  9
$FINGERPRINTGUID
  2
{8432CFB0-A238-45FD-BBE4-80933FDCDEE8}
  9
$VERSIONGUID
  2
{FAEB1C32-E019-11D5-929B-00C0DF256EC4}
  9
$EXTNAMES
290
     1
  9
$PSVPSCALE
 40
0.0
  9
$OLESTARTUP
290
     0
  0
ENDSEC
  0
SECTION
  2
CLASSES
  0
CLASS
  1
ACDBDICTIONARYWDFLT
  2
AcDbDictionaryWithDefault
  3
ObjectDBX Classes
 90
        0
280
     0
281
     0
  0
CLASS
  1
VISUALSTYLE
  2
AcDbVisualStyle
  3
ObjectDBX Classes
 90
     4095
280
     0
281
     0
  0
CLASS
  1
MATERIAL
  2
AcDbMaterial
  3
ObjectDBX Classes
 90
     1153
280
     0
281
     0
  0
CLASS
  1
DICTIONARYVAR
  2
AcDbDictionaryVar
  3
ObjectDBX Classes
 90
        0
280
     0
281
     0
  0
CLASS
  1
ACDBPLACEHOLDER
  2
AcDbPlaceHolder
  3
ObjectDBX Classes
 90
        0
280
     0
281
     0
  0
CLASS
  1
LAYOUT
  2
AcDbLayout
  3
ObjectDBX Classes
 90
        0
280
     0
281
     0
  0
ENDSEC
  0
SECTION
  2
TABLES
  0
TABLE
  2
VPORT
  5
8
330
0
100
AcDbSymbolTable
 70
     1
  0
VPORT
  5
29
330
8
100
AcDbSymbolTableRecord
100
AcDbViewportTableRecord
  2
*Active
 70
     0
 10
0.0
 20
0.0
 11
1.0
 21
1.0
 12
148.4999999999999
 22
105.0000000000001
 13
0.0
 23
0.0
 14
0.5
 24
0.5
 15
0.5
 25
0.5
 16
0.0
 26
0.0
 36
1.0
 17
0.0
 27
0.0
 37
0.0
 40
231.0000000000001
 41
1.60267857142857
 42
50.0
 43
0.0
 44
0.0
 50
0.0
 51
0.0
 71
     0
 72
   100
 73
     1
 74
     3
 75
     0
 76
     0
 77
     0
 78
     0
281
     0
 65
     1
110
0.0
120
0.0
130
0.0
111
1.0
121
0.0
131
0.0
112
0.0
122
1.0
132
0.0
 79
     0
146
0.0
  0
ENDTAB
  0
TABLE
  2
LTYPE
  5
5
330
0
100
AcDbSymbolTable
 70
     8
  0
LTYPE
  5
14
330
5
100
AcDbSymbolTableRecord
100
AcDbLinetypeTableRecord
  2
ByBlock
 70
     0
  3

 72
    65
 73
     0
 40
0.0
  0
LTYPE
  5
15
330
5
100
AcDbSymbolTableRecord
100
AcDbLinetypeTableRecord
  2
ByLayer
 70
     0
  3

 72
    65
 73
     0
 40
0.0
  0
LTYPE
  5
16
330
5
100
AcDbSymbolTableRecord
100
AcDbLinetypeTableRecord
  2
Continuous
 70
     0
  3
Solid line
 72
    65
 73
     0
 40
0.0
  0
LTYPE
  5
3F
330
5
100
AcDbSymbolTableRecord
100
AcDbLinetypeTableRecord
  2
DASHED
 70
     0
  3
Dashed
 72
    65
 73
     2
 40
15.0
 49
7.0
 74
     0
 49
-8.0
 74
     0
  0
LTYPE
  5
40
330
5
100
AcDbSymbolTableRecord
100
AcDbLinetypeTableRecord
  2
DOTTED
 70
     0
  3
Dotted
 72
    65
 73
     2
 40
1.0
 49
0.0
 74
     0
 49
-1.0
 74
     0
  0
LTYPE
  5
41
330
5
100
AcDbSymbolTableRecord
100
AcDbLinetypeTableRecord
  2
DOT_CENTER
 70
     0
  3
Dot_Center
 72
    65
 73
     4
 40
14.0
 49
12.0
 74
     0
 49
-1.0
 74
     0
 49
0.0
 74
     0
 49
-1.0
 74
     0
  0
LTYPE
  5
42
330
5
100
AcDbSymbolTableRecord
100
AcDbLinetypeTableRecord
  2
LONG_DASHED
 70
     0
  3
Long_Dashed
 72
    65
 73
     2
 40
15.0
 49
10.0
 74
     0
 49
-5.0
 74
     0
  0
LTYPE
  5
43
330
5
100
AcDbSymbolTableRecord
100
AcDbLinetypeTableRecord
  2
DASH_CENTER
 70
     0
  3
Dash_Center
 72
    65
 73
     4
 40
14.0
 49
11.0
 74
     0
 49
-1.0
 74
     0
 49
1.0
 74
     0
 49
-1.0
 74
     0
  0
LTYPE
  5
44
330
5
100
AcDbSymbolTableRecord
100
AcDbLinetypeTableRecord
  2
PHANTOM
 70
     0
  3
Phantom
 72
    65
 73
     6
 40
13.0
 49
10.0
 74
     0
 49
-1.0
 74
     0
 49
0.0
 74
     0
 49
-1.0
 74
     0
 49
0.0
 74
     0
 49
-1.0
 74
     0
  0
LTYPE
  5
45
330
5
100
AcDbSymbolTableRecord
100
AcDbLinetypeTableRecord
  2
CENTER_DASH_DASH
 70
     0
  3
Center_Dash_Dash
 72
    65
 73
     6
 40
14.0
 49
9.0
 74
     0
 49
-1.0
 74
     0
 49
1.0
 74
     0
 49
-1.0
 74
     0
 49
1.0
 74
     0
 49
-1.0
 74
     0
  0
ENDTAB
  0
TABLE
  2
LAYER
  5
2
330
0
100
AcDbSymbolTable
 70
     2
  0
LAYER
  5
10
330
2
100
AcDbSymbolTableRecord
100
AcDbLayerTableRecord
  2
0
 70
     0
 62
     7
  6
Continuous
370
    -3
390
F
  0
LAYER
  5
46
330
2
100
AcDbSymbolTableRecord
100
AcDbLayerTableRecord
  2
1
 70
     0
 62
     7
  6
Continuous
370
    -3
390
F
  0
ENDTAB
  0
TABLE
  2
STYLE
  5
3
330
0
100
AcDbSymbolTable
 70
     4
  0
STYLE
  5
11
330
3
100
AcDbSymbolTableRecord
100
AcDbTextStyleTableRecord
  2
Standard
 70
     0
 40
0.0
 41
1.0
 50
0.0
 71
     0
 42
0.2
  3
txt
  4

  0
STYLE
  5
3CB
330
3
100
AcDbSymbolTableRecord
100
AcDbTextStyleTableRecord
  2
CONVERTER_11
 70
     0
 40
0.0
 41
0.95
 50
0.0
 71
     0
 42
0.2
  3
simplex.shx
  4

  0
STYLE
  5
3CE
330
3
100
AcDbSymbolTableRecord
100
AcDbTextStyleTableRecord
  2
CONVERTER_12
 70
     0
 40
0.0
 41
1.2
 50
0.0
 71
     0
 42
0.2
  3
ARIAL.TTF
  4

  0
STYLE
  5
3D5
330
3
100
AcDbSymbolTableRecord
100
AcDbTextStyleTableRecord
  2
CONVERTER_13
 70
     0
 40
0.0
 41
1.38
 50
0.0
 71
     0
 42
0.2
  3
ARIAL.TTF
  4

  0
ENDTAB
  0
TABLE
  2
VIEW
  5
6
330
0
100
AcDbSymbolTable
 70
     0
  0
ENDTAB
  0
TABLE
  2
UCS
  5
7
330
0
100
AcDbSymbolTable
 70
     0
  0
ENDTAB
  0
TABLE
  2
APPID
  5
9
330
0
100
AcDbSymbolTable
 70
     1
  0
APPID
  5
12
330
9
100
AcDbSymbolTableRecord
100
AcDbRegAppTableRecord
  2
ACAD
 70
     0
  0
ENDTAB
  0
TABLE
  2
DIMSTYLE
  5
A
330
0
100
AcDbSymbolTable
 70
     7
100
AcDbDimStyleTable
  0
DIMSTYLE
105
27
330
A
100
AcDbSymbolTableRecord
100
AcDbDimStyleTableRecord
  2
Standard
 70
     0
178
     0
340
11
  0
DIMSTYLE
105
3E2
102
{ACAD_REACTORS
330
3E3
102
}
330
A
100
AcDbSymbolTableRecord
100
AcDbDimStyleTableRecord
  2
ME10_DIM_10
 70
     0
 41
3.0
 42
0.5
 44
1.0
 73
     0
 74
     0
 77
     1
 78
     8
140
3.0
147
2.0
172
     1
173
     1
174
     1
175
     1
176
     7
177
     7
271
     2
178
     7
271
     2
340
3CB
  0
DIMSTYLE
105
3ED
102
{ACAD_REACTORS
330
3EE
102
}
330
A
100
AcDbSymbolTableRecord
100
AcDbDimStyleTableRecord
  2
ME10_DIM_11
 70
     0
 41
3.0
 42
0.5
 44
1.0
 73
     0
 74
     0
 77
     1
 78
     8
140
3.0
147
2.0
172
     1
173
     1
174
     1
175
     1
176
     7
177
     7
271
     2
178
     7
271
     2
340
3CB
  0
DIMSTYLE
105
3F8
102
{ACAD_REACTORS
330
3F9
102
}
330
A
100
AcDbSymbolTableRecord
100
AcDbDimStyleTableRecord
  2
ME10_DIM_12
 70
     0
 41
3.0
 42
0.5
 44
1.0
 73
     0
 74
     0
 77
     1
 78
     8
140
3.0
147
2.0
172
     1
173
     1
174
     1
175
     1
176
     7
177
     7
271
     2
178
     7
271
     2
340
3CB
  0
DIMSTYLE
105
403
102
{ACAD_REACTORS
330
404
102
}
330
A
100
AcDbSymbolTableRecord
100
AcDbDimStyleTableRecord
  2
ME10_DIM_13
 70
     0
 41
3.0
 42
0.5
 44
1.0
 73
     0
 74
     0
 77
     1
 78
     8
140
3.0
147
2.0
172
     1
173
     1
174
     1
175
     1
176
     7
177
     7
271
     2
178
     7
271
     2
340
3CB
  0
DIMSTYLE
105
40E
102
{ACAD_REACTORS
330
40F
102
}
330
A
100
AcDbSymbolTableRecord
100
AcDbDimStyleTableRecord
  2
ME10_DIM_14
 70
     0
 41
3.0
 42
0.5
 44
1.0
 73
     0
 74
     0
 77
     1
 78
     8
140
3.0
147
2.0
172
     1
173
     1
174
     1
175
     1
176
     7
177
     7
271
     2
178
     7
271
     2
340
3CB
  0
DIMSTYLE
105
419
102
{ACAD_REACTORS
330
41A
102
}
330
A
100
AcDbSymbolTableRecord
100
AcDbDimStyleTableRecord
  2
ME10_DIM_15
 70
     0
 41
3.0
 42
0.5
 44
1.0
 73
     0
 74
     0
 77
     1
 78
     8
140
3.0
147
2.0
172
     1
173
     1
174
     1
175
     1
176
     7
177
     7
271
     2
178
     7
271
     2
340
3CB
  0
ENDTAB
  0
TABLE
  2
BLOCK_RECORD
  5
1
330
0
100
AcDbSymbolTable
 70
     8
  0
BLOCK_RECORD
  5
1F
330
1
100
AcDbSymbolTableRecord
100
AcDbBlockTableRecord
  2
*Model_Space
340
22
  0
BLOCK_RECORD
  5
1B
330
1
100
AcDbSymbolTableRecord
100
AcDbBlockTableRecord
  2
*Paper_Space
340
1E
  0
BLOCK_RECORD
  5
23
330
1
100
AcDbSymbolTableRecord
100
AcDbBlockTableRecord
  2
*Paper_Space0
340
26
  0
BLOCK_RECORD
  5
47
330
1
100
AcDbSymbolTableRecord
100
AcDbBlockTableRecord
  2
_dummy_frame
340
0
102
{BLKREFS
331
4A
102
}
  0
BLOCK_RECORD
  5
3D9
330
1
100
AcDbSymbolTableRecord
100
AcDbBlockTableRecord
  2
*D2
340
0
  0
BLOCK_RECORD
  5
3E4
330
1
100
AcDbSymbolTableRecord
100
AcDbBlockTableRecord
  2
*D3
340
0
  0
BLOCK_RECORD
  5
3EF
330
1
100
AcDbSymbolTableRecord
100
AcDbBlockTableRecord
  2
*D4
340
0
  0
BLOCK_RECORD
  5
3FA
330
1
100
AcDbSymbolTableRecord
100
AcDbBlockTableRecord
  2
*D5
340
0
  0
BLOCK_RECORD
  5
405
330
1
100
AcDbSymbolTableRecord
100
AcDbBlockTableRecord
  2
*D6
340
0
  0
BLOCK_RECORD
  5
410
330
1
100
AcDbSymbolTableRecord
100
AcDbBlockTableRecord
  2
*D7
340
0
  0
ENDTAB
  0
ENDSEC
  0
SECTION
  2
BLOCKS
  0
BLOCK
  5
20
330
1F
100
AcDbEntity
  8
0
100
AcDbBlockBegin
  2
*Model_Space
 70
     0
 10
0.0
 20
0.0
 30
0.0
  3
*Model_Space
  1

  0
ENDBLK
  5
21
330
1F
100
AcDbEntity
  8
0
100
AcDbBlockEnd
  0
BLOCK
  5
1C
330
1B
100
AcDbEntity
 67
     1
  8
0
100
AcDbBlockBegin
  2
*Paper_Space
 70
     0
 10
0.0
 20
0.0
 30
0.0
  3
*Paper_Space
  1

  0
ENDBLK
  5
1D
330
1B
100
AcDbEntity
 67
     1
  8
0
100
AcDbBlockEnd
  0
BLOCK
  5
24
330
23
100
AcDbEntity
  8
0
100
AcDbBlockBegin
  2
*Paper_Space0
 70
     0
 10
0.0
 20
0.0
 30
0.0
  3
*Paper_Space0
  1

  0
ENDBLK
  5
25
330
23
100
AcDbEntity
  8
0
100
AcDbBlockEnd
  0
BLOCK
  5
48
330
47
100
AcDbEntity
  8
0
100
AcDbBlockBegin
  2
_dummy_frame
 70
     0
 10
91.0277033482987
 20
5.00000000000001
 30
0.0
  3
_dummy_frame
  1

  0
POINT
  5
4B
330
47
100
AcDbEntity
  8
1
 62
     7
 60
     1
100
AcDbPoint
 10
91.0277033482987
 20
5.00000000000001
 30
0.0
  0
ENDBLK
  5
49
330
47
100
AcDbEntity
  8
0
100
AcDbBlockEnd
  0
BLOCK
  5
3E0
330
3D9
100
AcDbEntity
  8
0
100
AcDbBlockBegin
  2
*D2
 70
     1
 10
0.0
 20
0.0
 30
0.0
  3
*D2
  1

  0
LINE
  5
3DA
330
3D9
100
AcDbEntity
  8
1
  6
Continuous
 62
     7
100
AcDbLine
 10
186.338125933392
 20
81.32974382417427
 30
0.0
 11
186.338125933392
 21
125.3297438241743
 31
0.0
  0
LINE
  5
3DB
330
3D9
100
AcDbEntity
  8
1
  6
Continuous
 62
     7
100
AcDbLine
 10
201.8773347032661
 20
125.3297438241743
 30
0.0
 11
185.338125933392
 21
125.3297438241743
 31
0.0
  0
LINE
  5
3DC
330
3D9
100
AcDbEntity
  8
1
  6
Continuous
 62
     7
100
AcDbLine
 10
208.3773347032661
 20
81.32974382417427
 30
0.0
 11
185.338125933392
 21
81.32974382417427
 31
0.0
  0
SOLID
  5
3DD
330
3D9
100
AcDbEntity
  8
1
 62
     7
100
AcDbTrace
 10
185.9431684406298
 20
84.32974382417427
 30
0.0
 11
186.7330834261542
 21
84.32974382417427
 31
0.0
 12
186.338125933392
 22
81.32974382417427
 32
0.0
 13
186.338125933392
 23
81.32974382417427
 33
0.0
  0
SOLID
  5
3DE
330
3D9
100
AcDbEntity
  8
1
 62
     7
100
AcDbTrace
 10
186.7330834261542
 20
122.3297438241743
 30
0.0
 11
185.9431684406298
 21
122.3297438241743
 31
0.0
 12
186.338125933392
 22
125.3297438241743
 32
0.0
 13
186.338125933392
 23
125.3297438241743
 33
0.0
  0
MTEXT
  5
3DF
330
3D9
100
AcDbEntity
  8
1
 62
     7
100
AcDbMText
 10
184.338125933392
 20
101.0797438241743
 30
0.0
 40
3.0
 41
0.0
 71
     7
 72
     1
  1
44
  7
CONVERTER_11
 11
0.0
 21
1.0
 31
0.0
 73
     1
 44
0.60024009603842
  0
ENDBLK
  5
3E1
330
3D9
100
AcDbEntity
  8
0
100
AcDbBlockEnd
  0
BLOCK
  5
3EB
330
3E4
100
AcDbEntity
  8
0
100
AcDbBlockBegin
  2
*D3
 70
     1
 10
0.0
 20
0.0
 30
0.0
  3
*D3
  1

  0
LINE
  5
3E5
330
3E4
100
AcDbEntity
  8
1
  6
Continuous
 62
     7
100
AcDbLine
 10
169.952689948045
 20
66.32974382417427
 30
0.0
 11
169.952689948045
 21
125.3297438241743
 31
0.0
  0
LINE
  5
3E6
330
3E4
100
AcDbEntity
  8
1
  6
Continuous
 62
     7
100
AcDbLine
 10
201.8773347032661
 20
125.3297438241743
 30
0.0
 11
168.952689948045
 21
125.3297438241743
 31
0.0
  0
LINE
  5
3E7
330
3E4
100
AcDbEntity
  8
1
  6
Continuous
 62
     7
100
AcDbLine
 10
206.0684099247688
 20
66.32974382417427
 30
0.0
 11
168.952689948045
 21
66.32974382417427
 31
0.0
  0
SOLID
  5
3E8
330
3E4
100
AcDbEntity
  8
1
 62
     7
100
AcDbTrace
 10
169.5577324552828
 20
69.32974382417427
 30
0.0
 11
170.3476474408072
 21
69.32974382417427
 31
0.0
 12
169.952689948045
 22
66.32974382417427
 32
0.0
 13
169.952689948045
 23
66.32974382417427
 33
0.0
  0
SOLID
  5
3E9
330
3E4
100
AcDbEntity
  8
1
 62
     7
100
AcDbTrace
 10
170.3476474408072
 20
122.3297438241743
 30
0.0
 11
169.5577324552828
 21
122.3297438241743
 31
0.0
 12
169.952689948045
 22
125.3297438241743
 32
0.0
 13
169.952689948045
 23
125.3297438241743
 33
0.0
  0
MTEXT
  5
3EA
330
3E4
100
AcDbEntity
  8
1
 62
     7
100
AcDbMText
 10
167.952689948045
 20
93.5797438241743
 30
0.0
 40
3.0
 41
0.0
 71
     7
 72
     1
  1
59
  7
CONVERTER_11
 11
0.0
 21
1.0
 31
0.0
 73
     1
 44
0.60024009603842
  0
ENDBLK
  5
3EC
330
3E4
100
AcDbEntity
  8
0
100
AcDbBlockEnd
  0
BLOCK
  5
3F6
330
3EF
100
AcDbEntity
  8
0
100
AcDbBlockBegin
  2
*D4
 70
     1
 10
0.0
 20
0.0
 30
0.0
  3
*D4
  1

  0
LINE
  5
3F0
330
3EF
100
AcDbEntity
  8
1
  6
Continuous
 62
     7
100
AcDbLine
 10
130.677334110698
 20
172.8297438241723
 30
0.0
 11
55.67733411069787
 21
172.8297438241723
 31
0.0
  0
LINE
  5
3F1
330
3EF
100
AcDbEntity
  8
1
  6
Continuous
 62
     7
100
AcDbLine
 10
55.67733411069787
 20
142.8297438241723
 30
0.0
 11
55.67733411069787
 21
173.8297438241723
 31
0.0
  0
LINE
  5
3F2
330
3EF
100
AcDbEntity
  8
1
  6
Continuous
 62
     7
100
AcDbLine
 10
130.677334110698
 20
142.8297438241723
 30
0.0
 11
130.677334110698
 21
173.8297438241723
 31
0.0
  0
SOLID
  5
3F3
330
3EF
100
AcDbEntity
  8
1
 62
     7
100
AcDbTrace
 10
127.677334110698
 20
172.4347863314101
 30
0.0
 11
127.677334110698
 21
173.2247013169345
 31
0.0
 12
130.677334110698
 22
172.8297438241723
 32
0.0
 13
130.677334110698
 23
172.8297438241723
 33
0.0
  0
SOLID
  5
3F4
330
3EF
100
AcDbEntity
  8
1
 62
     7
100
AcDbTrace
 10
58.67733411069787
 20
173.2247013169345
 30
0.0
 11
58.67733411069787
 21
172.4347863314101
 31
0.0
 12
55.67733411069787
 22
172.8297438241723
 32
0.0
 13
55.67733411069787
 23
172.8297438241723
 33
0.0
  0
MTEXT
  5
3F5
330
3EF
100
AcDbEntity
  8
1
 62
     7
100
AcDbMText
 10
90.92733411069793
 20
174.8297438241723
 30
0.0
 40
3.0
 41
0.0
 71
     7
 72
     1
  1
75
  7
CONVERTER_11
 11
0.9999999999970619
 21
2.424068405545306E-6
 31
0.0
 73
     1
 44
0.60024009603842
  0
ENDBLK
  5
3F7
330
3EF
100
AcDbEntity
  8
0
100
AcDbBlockEnd
  0
BLOCK
  5
401
330
3FA
100
AcDbEntity
  8
0
100
AcDbBlockBegin
  2
*D5
 70
     1
 10
0.0
 20
0.0
 30
0.0
  3
*D5
  1

  0
LINE
  5
3FB
330
3FA
100
AcDbEntity
  8
1
  6
Continuous
 62
     7
100
AcDbLine
 10
61.67733457743827
 20
157.8297438241723
 30
0.0
 11
124.6773345774383
 21
157.8297438241723
 31
0.0
  0
LINE
  5
3FC
330
3FA
100
AcDbEntity
  8
1
  6
Continuous
 62
     7
100
AcDbLine
 10
124.6773345774383
 20
124.887650544171
 30
0.0
 11
124.6773345774383
 21
158.8297438241723
 31
0.0
  0
LINE
  5
3FD
330
3FA
100
AcDbEntity
  8
1
  6
Continuous
 62
     7
100
AcDbLine
 10
61.67733457743827
 20
124.8876514798212
 30
0.0
 11
61.67733457743827
 21
158.8297438241723
 31
0.0
  0
SOLID
  5
3FE
330
3FA
100
AcDbEntity
  8
1
 62
     7
100
AcDbTrace
 10
64.67733457743827
 20
158.2247013169345
 30
0.0
 11
64.67733457743827
 21
157.4347863314101
 31
0.0
 12
61.67733457743827
 22
157.8297438241723
 32
0.0
 13
61.67733457743827
 23
157.8297438241723
 33
0.0
  0
SOLID
  5
3FF
330
3FA
100
AcDbEntity
  8
1
 62
     7
100
AcDbTrace
 10
121.6773345774383
 20
157.4347863314101
 30
0.0
 11
121.6773345774383
 21
158.2247013169345
 31
0.0
 12
124.6773345774383
 22
157.8297438241723
 32
0.0
 13
124.6773345774383
 23
157.8297438241723
 33
0.0
  0
MTEXT
  5
400
330
3FA
100
AcDbEntity
  8
1
 62
     7
100
AcDbMText
 10
90.92733457743827
 20
159.8297438241723
 30
0.0
 40
3.0
 41
0.0
 71
     7
 72
     1
  1
63
  7
CONVERTER_11
 11
0.9999999999970619
 21
2.424068405545306E-6
 31
0.0
 73
     1
 44
0.60024009603842
  0
ENDBLK
  5
402
330
3FA
100
AcDbEntity
  8
0
100
AcDbBlockEnd
  0
BLOCK
  5
40C
330
405
100
AcDbEntity
  8
0
100
AcDbBlockBegin
  2
*D6
 70
     1
 10
0.0
 20
0.0
 30
0.0
  3
*D6
  1

  0
LINE
  5
406
330
405
100
AcDbEntity
  8
1
  6
Continuous
 62
     7
100
AcDbLine
 10
101.1773345774383
 20
49.1157591658905
 30
0.0
 11
85.17733457743827
 21
49.1157591658905
 31
0.0
  0
LINE
  5
407
330
405
100
AcDbEntity
  8
1
  6
Continuous
 62
     7
100
AcDbLine
 10
85.17733457743827
 20
65.82974382417429
 30
0.0
 11
85.17733457743827
 21
48.1157591658905
 31
0.0
  0
LINE
  5
408
330
405
100
AcDbEntity
  8
1
  6
Continuous
 62
     7
100
AcDbLine
 10
101.1773345774383
 20
65.82974382417429
 30
0.0
 11
101.1773345774383
 21
48.1157591658905
 31
0.0
  0
SOLID
  5
409
330
405
100
AcDbEntity
  8
1
 62
     7
100
AcDbTrace
 10
98.17733457743827
 20
48.72080167312831
 30
0.0
 11
98.17733457743827
 21
49.51071665865269
 31
0.0
 12
101.1773345774383
 22
49.1157591658905
 32
0.0
 13
101.1773345774383
 23
49.1157591658905
 33
0.0
  0
SOLID
  5
40A
330
405
100
AcDbEntity
  8
1
 62
     7
100
AcDbTrace
 10
88.17733457743827
 20
49.51071665865269
 30
0.0
 11
88.17733457743827
 21
48.72080167312831
 31
0.0
 12
85.17733457743827
 22
49.1157591658905
 32
0.0
 13
85.17733457743827
 23
49.1157591658905
 33
0.0
  0
MTEXT
  5
40B
330
405
100
AcDbEntity
  8
1
 62
     7
100
AcDbMText
 10
86.65233457743827
 20
51.4157591658905
 30
0.0
 40
3.0
 41
0.0
 71
     7
 72
     1
  1
PG13,5
  7
CONVERTER_11
 11
0.9999999999970619
 21
2.424068405545306E-6
 31
0.0
 73
     1
 44
0.60024009603842
  0
ENDBLK
  5
40D
330
405
100
AcDbEntity
  8
0
100
AcDbBlockEnd
  0
BLOCK
  5
417
330
410
100
AcDbEntity
  8
0
100
AcDbBlockBegin
  2
*D7
 70
     1
 10
0.0
 20
0.0
 30
0.0
  3
*D7
  1

  0
LINE
  5
411
330
410
100
AcDbEntity
  8
1
  6
Continuous
 62
     7
100
AcDbLine
 10
202.3773347032661
 20
157.8297438241723
 30
0.0
 11
255.1071898400911
 21
157.8297438241723
 31
0.0
  0
LINE
  5
412
330
410
100
AcDbEntity
  8
1
  6
Continuous
 62
     7
100
AcDbLine
 10
202.3773347032661
 20
125.8297438241743
 30
0.0
 11
202.3773347032661
 21
158.8297438241723
 31
0.0
  0
LINE
  5
413
330
410
100
AcDbEntity
  8
1
  6
Continuous
 62
     7
100
AcDbLine
 10
255.1071898400911
 20
114.7297438241738
 30
0.0
 11
255.1071898400911
 21
158.8297438241723
 31
0.0
  0
SOLID
  5
414
330
410
100
AcDbEntity
  8
1
 62
     7
100
AcDbTrace
 10
205.3773347032661
 20
158.2247013169345
 30
0.0
 11
205.3773347032661
 21
157.4347863314101
 31
0.0
 12
202.3773347032661
 22
157.8297438241723
 32
0.0
 13
202.3773347032661
 23
157.8297438241723
 33
0.0
  0
SOLID
  5
415
330
410
100
AcDbEntity
  8
1
 62
     7
100
AcDbTrace
 10
252.1071898400911
 20
157.4347863314101
 30
0.0
 11
252.1071898400911
 21
158.2247013169345
 31
0.0
 12
255.1071898400911
 22
157.8297438241723
 32
0.0
 13
255.1071898400911
 23
157.8297438241723
 33
0.0
  0
MTEXT
  5
416
330
410
100
AcDbEntity
  8
1
 62
     7
100
AcDbMText
 10
226.4922622716786
 20
159.8297438241723
 30
0.0
 40
3.0
 41
0.0
 71
     7
 72
     1
  1
53
  7
CONVERTER_11
 11
0.9999999999970619
 21
2.424068405545306E-6
 31
0.0
 73
     1
 44
0.60024009603842
  0
ENDBLK
  5
418
330
410
100
AcDbEntity
  8
0
100
AcDbBlockEnd
  0
ENDSEC
  0
SECTION
  2
ENTITIES
  0
INSERT
  5
4A
330
1F
100
AcDbEntity
  8
1
100
AcDbBlockReference
  2
_dummy_frame
 10
91.0277033482987
 20
5.00000000000001
 30
0.0
  0
LINE
  5
4C
330
1F
100
AcDbEntity
  8
1
  6
Continuous
 62
     7
100
AcDbLine
 10
205.0773347032661
 20
80.54688776026845
 30
0.0
 11
205.0773347032661
 21
67.32974382417424
 31
0.0
  0
LINE
  5
4D
330
1F
100
AcDbEntity
  8
0
  6
Continuous
 62
     7
100
AcDbLine
 10
59.82733411069785
 20
142.8297438241715
 30
0.0
 11
56.17733411069787
 21
142.8297438241723
 31
0.0
  0
LINE
  5
4E
330
1F
100
AcDbEntity
  8
0
  6
Continuous
 62
     7
100
AcDbLine
 10
55.67733411069787
 20
142.3297438241723
 30
0.0
 11
55.67733411069787
 21
123.2928004177156
 31
0.0
  0
LINE
  5
4F
330
1F
100
AcDbEntity
  8
0
  6
Continuous
 62
     7
100
AcDbLine
 10
60.92733411069787
 20
122.6091366871683
 30
0.0
 11
60.92733411069787
 21
112.229674023325
 31
0.0
  0
LINE
  5
50
330
1F
100
AcDbEntity
  8
0
  6
Continuous
 62
     7
100
AcDbLine
 10
55.67733411069787
 20
119.0297438241737
 30
0.0
 11
55.67733411069787
 21
123.2928004177156
 31
0.0
  0
LINE
  5
51
330
1F
100
AcDbEntity
  8
0
  6
Continuous
 62
     7
100
AcDbLine
 10
55.67733411069787
 20
119.0297438241737
 30
0.0
 11
55.67733411069787
 21
115.2297438241737
 31
0.0
  0
LINE
  5
52
330
1F
100
AcDbEntity
  8
0
  6
Continuous
 62
     7
100
AcDbLine
 10
125.427334110698
 20
110.4297438241734
 30
0.0
 11
125.427334110698
 21
112.229674023325
 31
0.0
  0
LINE
  5
53
330
1F
100
AcDbEntity
  8
0
  6
Continuous
 62
     7
100
AcDbLine
 10
125.427334110698
 20
122.6091366871683
 30
0.0
 11
125.427334110698
 21
112.229674023325
 31
0.0
  0
LINE
  5
54
330
1F
100
AcDbEntity
  8
0
  6
Continuous
 62
     7
100
AcDbLine
 10
55.67733411069787
 20
112.5953508741345
 30
0.0
 11
55.67733411069787
 21
115.2297438241737
 31
0.0
  0
LINE
  5
55
330
1F
100
AcDbEntity
  8
0
  6
Continuous
 62
     7
100
AcDbLine
 10
55.67733411069798
 20
110.9297438241733
 30
0.0
 11
55.67733411069787
 21
112.5953508741345
 31
0.0
  0
LINE
  5
56
330
1F
100
AcDbEntity
  8
0
  6
Continuous
 62
     7
100
AcDbLine
 10
60.92733411069798
 20
110.4297438241734
 30
0.0
 11
60.92733411069787
 21
112.229674023325
 31
0.0
  0
LINE
  5
57
330
1F
100
AcDbEntity
  8
0
  6
Continuous
 62
     7
100
AcDbLine
 10
130.677334110698
 20
110.9297438241734
 30
0.0
 11
130.677334110698
 21
112.5953508741346
 31
0.0
  0
LINE
  5
58
330
1F
100
AcDbEntity
  8
0
  6
Continuous
 62
     7
100
AcDbLine
 10
130.677334110698
 20
112.5953508741346
 30
0.0
 11
130.677334110698
 21
115.2297438241743
 31
0.0
  0
LINE
  5
59
330
1F
100
AcDbEntity
  8
0
  6
Continuous
 62
     7
100
AcDbLine
 10
130.177334110698
 20
110.4297438241734
 30
0.0
 11
125.427334110698
 21
110.4297438241734
 31
0.0
  0
LINE
  5
5A
330
1F
100
AcDbEntity
  8
0
  6
Continuous
 62
     7
100
AcDbLine
 10
56.17733411069798
 20
110.4297438241733
 30
0.0
 11
60.92733411069798
 21
110.4297438241734
 31
0.0
  0
LINE
  5
5B
330
1F
100
AcDbEntity
  8
0
  6
Continuous
 62
     7
100
AcDbLine
 10
63.72733411069794
 20
125.2201789283537
 30
0.0
 11
122.6273341106979
 21
125.2201789283538
 31
0.0
  0
LINE
  5
5C
330
1F
100
AcDbEntity
  8
0
  6
Continuous
 62
     7
100
AcDbLine
 10
130.677334110698
 20
119.0297438241743
 30
0.0
 11
130.677334110698
 21
123.2928004177156
 31
0.0
  0
LINE
  5
5D
330
1F
100
AcDbEntity
  8
0
  6
Continuous
 62
     7
100
AcDbLine
 10
126.5273341106979
 20
142.8297438241723
 30
0.0
 11
130.177334110698
 21
142.8297438241723
 31
0.0
  0
LINE
  5
5E
330
1F
100
AcDbEntity
  8
0
  6
Continuous
 62
     7
100
AcDbLine
 10
130.677334110698
 20
123.2928004177156
 30
0.0
 11
130.677334110698
 21
142.3297438241723
 31
0.0
  0
LINE
  5
5F
330
1F
100
AcDbEntity
  8
0
  6
Continuous
 62
     7
100
AcDbLine
 10
130.677334110698
 20
115.2297438241743
 30
0.0
 11
130.677334110698
 21
119.0297438241743
 31
0.0
  0
LINE
  5
60
330
1F
100
AcDbEntity
  8
0
  6
Continuous
 62
     7
100
AcDbLine
 10
55.67733411069787
 20
119.0297438241737
 30
0.0
 11
55.67733411069787
 21
115.2297438241737
 31
0.0
  0
LINE
  5
61
330
1F
100
AcDbEntity
  8
0
  6
Continuous
 62
     7
100
AcDbLine
 10
68.17733457743827
 20
113.3297438241743
 30
0.0
 11
61.67733457743827
 21
113.3297438241743
 31
0.0
  0
LINE
  5
62
330
1F
100
AcDbEntity
  8
0
  6
Continuous
 62
     7
100
AcDbLine
 10
61.67733457743827
 20
124.3876514798211
 30
0.0
 11
61.67733457743827
 21
120.5297438241737
 31
0.0
  0
LINE
  5
63
330
1F
100
AcDbEntity
  8
0
  6
Continuous
 62
     7
100
AcDbLine
 10
61.17733411069787
 20
120.5297438241737
 30
0.0
 11
61.67733457743827
 21
120.5297438241737
 31
0.0
  0
LINE
  5
64
330
1F
100
AcDbEntity
  8
0
  6
Continuous
 62
     7
100
AcDbLine
 10
61.17733411069787
 20
120.5297438241737
 30
0.0
 11
61.17733411069787
 21
113.7297438241737
 31
0.0
  0
LINE
  5
65
330
1F
100
AcDbEntity
  8
0
  6
Continuous
 62
     7
100
AcDbLine
 10
61.67733457743827
 20
120.5297438241737
 30
0.0
 11
61.67733457743827
 21
113.7297438241737
 31
0.0
  0
LINE
  5
66
330
1F
100
AcDbEntity
  8
0
  6
Continuous
 62
     7
100
AcDbLine
 10
60.92733411069798
 20
120.2797438241738
 30
0.0
 11
61.17733411069787
 21
120.5297438241737
 31
0.0
  0
LINE
  5
67
330
1F
100
AcDbEntity
  8
0
  6
Continuous
 62
     7
100
AcDbLine
 10
105.1773345774383
 20
80.3297438241743
 30
0.0
 11
105.1773345774383
 21
67.32974382417427
 31
0.0
  0
LINE
  5
68
330
1F
100
AcDbEntity
  8
0
  6
Continuous
 62
     7
100
AcDbLine
 10
104.1773345774383
 20
66.32974382417427
 30
0.0
 11
101.1773345774383
 21
66.32974382417427
 31
0.0
  0
LINE
  5
69
330
1F
100
AcDbEntity
  8
0
  6
Continuous
 62
     7
100
AcDbLine
 10
118.1773345774383
 20
81.3297438241743
 30
0.0
 11
106.1773345774383
 21
81.3297438241743
 31
0.0
  0
LINE
  5
6A
330
1F
100
AcDbEntity
  8
0
  6
Continuous
 62
     7
100
AcDbLine
 10
106.1773345774383
 20
81.3297438241743
 30
0.0
 11
98.84390320404111
 21
81.32974382417427
 31
0.0
  0
LINE
  5
6B
330
1F
100
AcDbEntity
  8
0
  6
Continuous
 62
     7
100
AcDbLine
 10
118.1773345774383
 20
81.3297438241743
 30
0.0
 11
121.6773345774383
 21
81.3297438241743
 31
0.0
  0
LINE
  5
6C
330
1F
100
AcDbEntity
  8
0
  6
Continuous
 62
     7
100
AcDbLine
 10
124.6773345774383
 20
106.0001808100756
 30
0.0
 11
124.6773345774383
 21
84.3297438241743
 31
0.0
  0
LINE
  5
6D
330
1F
100
AcDbEntity
  8
0
  6
Continuous
 62
     7
100
AcDbLine
 10
124.6773345774383
 20
106.0001808100756
 30
0.0
 11
124.6773345774383
 21
113.3297438241743
 31
0.0
  0
LINE
  5
6E
330
1F
100
AcDbEntity
  8
0
  6
Continuous
 62
     7
100
AcDbLine
 10
118.1773345774383
 20
108.1725652897636
 30
0.0
 11
124.5424337632219
 21
108.1725652897636
 31
0.0
  0
LINE
  5
6F
330
1F
100
AcDbEntity
  8
0
  6
Continuous
 62
     7
100
AcDbLine
 10
118.1773345774383
 20
107.686922358585
 30
0.0
 11
124.5424337632219
 21
107.686922358585
 31
0.0
  0
LINE
  5
70
330
1F
100
AcDbEntity
  8
0
  6
Continuous
 62
     7
100
AcDbLine
 10
118.1773345774383
 20
107.2725652897636
 30
0.0
 11
124.3122353916546
 21
107.2725652897636
 31
0.0
  0
LINE
  5
71
330
1F
100
AcDbEntity
  8
0
  6
Continuous
 62
     7
100
AcDbLine
 10
124.3122353916546
 20
108.586922358585
 30
0.0
 11
124.5424337632219
 21
108.1725652897636
 31
0.0
  0
LINE
  5
72
330
1F
100
AcDbEntity
  8
0
  6
Continuous
 62
     7
100
AcDbLine
 10
118.1773345774383
 20
106.786922358585
 30
0.0
 11
124.3122353916546
 21
106.786922358585
 31
0.0
  0
LINE
  5
73
330
1F
100
AcDbEntity
  8
0
  6
Continuous
 62
     7
100
AcDbLine
 10
118.1773345774383
 20
106.0001808100756
 30
0.0
 11
124.6773345774383
 21
106.0001808100756
 31
0.0
  0
LINE
  5
74
330
1F
100
AcDbEntity
  8
0
  6
Continuous
 62
     7
100
AcDbLine
 10
118.1773345774383
 20
106.2430022756649
 30
0.0
 11
124.614413215499
 21
106.2430022756649
 31
0.0
  0
LINE
  5
75
330
1F
100
AcDbEntity
  8
0
  6
Continuous
 62
     7
100
AcDbLine
 10
124.3122353916546
 20
107.2725652897636
 30
0.0
 11
124.5424337632219
 21
107.686922358585
 31
0.0
  0
LINE
  5
76
330
1F
100
AcDbEntity
  8
0
  6
Continuous
 62
     7
100
AcDbLine
 10
124.3122353916546
 20
112.186922358585
 30
0.0
 11
124.5424337632219
 21
111.7725652897636
 31
0.0
  0
LINE
  5
77
330
1F
100
AcDbEntity
  8
0
  6
Continuous
 62
     7
100
AcDbLine
 10
124.3122353916546
 20
109.0725652897636
 30
0.0
 11
124.5424337632219
 21
109.486922358585
 31
0.0
  0
LINE
  5
78
330
1F
100
AcDbEntity
  8
0
  6
Continuous
 62
     7
100
AcDbLine
 10
118.1773345774383
 20
110.8725652897636
 30
0.0
 11
124.3122353916546
 21
110.8725652897636
 31
0.0
  0
LINE
  5
79
330
1F
100
AcDbEntity
  8
0
  6
Continuous
 62
     7
100
AcDbLine
 10
118.1773345774383
 20
109.9725652897636
 30
0.0
 11
124.5424337632219
 21
109.9725652897636
 31
0.0
  0
LINE
  5
7A
330
1F
100
AcDbEntity
  8
0
  6
Continuous
 62
     7
100
AcDbLine
 10
118.1773345774383
 20
110.386922358585
 30
0.0
 11
124.3122353916546
 21
110.386922358585
 31
0.0
  0
LINE
  5
7B
330
1F
100
AcDbEntity
  8
0
  6
Continuous
 62
     7
100
AcDbLine
 10
118.1773345774383
 20
111.286922358585
 30
0.0
 11
124.5424337632219
 21
111.286922358585
 31
0.0
  0
LINE
  5
7C
330
1F
100
AcDbEntity
  8
0
  6
Continuous
 62
     7
100
AcDbLine
 10
118.1773345774383
 20
111.7725652897636
 30
0.0
 11
124.5424337632219
 21
111.7725652897636
 31
0.0
  0
LINE
  5
7D
330
1F
100
AcDbEntity
  8
0
  6
Continuous
 62
     7
100
AcDbLine
 10
118.1773345774383
 20
112.186922358585
 30
0.0
 11
124.3122353916546
 21
112.186922358585
 31
0.0
  0
LINE
  5
7E
330
1F
100
AcDbEntity
  8
0
  6
Continuous
 62
     7
100
AcDbLine
 10
118.1773345774383
 20
108.586922358585
 30
0.0
 11
124.3122353916546
 21
108.586922358585
 31
0.0
  0
LINE
  5
7F
330
1F
100
AcDbEntity
  8
0
  6
Continuous
 62
     7
100
AcDbLine
 10
118.1773345774383
 20
109.0725652897636
 30
0.0
 11
124.3122353916546
 21
109.0725652897636
 31
0.0
  0
LINE
  5
80
330
1F
100
AcDbEntity
  8
0
  6
Continuous
 62
     7
100
AcDbLine
 10
118.1773345774383
 20
109.486922358585
 30
0.0
 11
124.5424337632219
 21
109.486922358585
 31
0.0
  0
LINE
  5
81
330
1F
100
AcDbEntity
  8
0
  6
Continuous
 62
     7
100
AcDbLine
 10
118.1773345774383
 20
113.3297438241743
 30
0.0
 11
124.6773345774383
 21
113.3297438241743
 31
0.0
  0
LINE
  5
82
330
1F
100
AcDbEntity
  8
0
  6
Continuous
 62
     7
100
AcDbLine
 10
118.1773345774383
 20
112.6725652897636
 30
0.0
 11
124.3122353916546
 21
112.6725652897636
 31
0.0
  0
LINE
  5
83
330
1F
100
AcDbEntity
  8
0
  6
Continuous
 62
     7
100
AcDbLine
 10
124.3122353916546
 20
112.6725652897636
 30
0.0
 11
124.6773345774383
 21
113.3297438241743
 31
0.0
  0
LINE
  5
84
330
1F
100
AcDbEntity
  8
0
  6
Continuous
 62
     7
100
AcDbLine
 10
124.3122353916546
 20
110.386922358585
 30
0.0
 11
124.5424337632219
 21
109.9725652897636
 31
0.0
  0
LINE
  5
85
330
1F
100
AcDbEntity
  8
0
  6
Continuous
 62
     7
100
AcDbLine
 10
124.3122353916546
 20
110.8725652897636
 30
0.0
 11
124.5424337632219
 21
111.286922358585
 31
0.0
  0
LINE
  5
86
330
1F
100
AcDbEntity
  8
0
  6
Continuous
 62
     7
100
AcDbLine
 10
124.3122353916546
 20
106.786922358585
 30
0.0
 11
124.614413215499
 21
106.2430022756649
 31
0.0
  0
LINE
  5
87
330
1F
100
AcDbEntity
  8
0
  6
Continuous
 62
     7
100
AcDbLine
 10
68.17733457743827
 20
106.2430022756649
 30
0.0
 11
118.1773345774383
 21
106.2430022756649
 31
0.0
  0
LINE
  5
88
330
1F
100
AcDbEntity
  8
0
  6
Continuous
 62
     7
100
AcDbLine
 10
68.17733457743827
 20
106.0001808100756
 30
0.0
 11
118.1773345774383
 21
106.0001808100756
 31
0.0
  0
LINE
  5
89
330
1F
100
AcDbEntity
  8
0
  6
Continuous
 62
     7
100
AcDbLine
 10
68.17733457743827
 20
108.586922358585
 30
0.0
 11
118.1773345774383
 21
108.586922358585
 31
0.0
  0
LINE
  5
8A
330
1F
100
AcDbEntity
  8
0
  6
Continuous
 62
     7
100
AcDbLine
 10
68.17733457743827
 20
109.0725652897636
 30
0.0
 11
118.1773345774383
 21
109.0725652897636
 31
0.0
  0
LINE
  5
8B
330
1F
100
AcDbEntity
  8
0
  6
Continuous
 62
     7
100
AcDbLine
 10
118.1773345774383
 20
109.486922358585
 30
0.0
 11
68.17733457743827
 21
109.4869223585849
 31
0.0
  0
LINE
  5
8C
330
1F
100
AcDbEntity
  8
0
  6
Continuous
 62
     7
100
AcDbLine
 10
118.1773345774383
 20
113.3297438241743
 30
0.0
 11
68.17733457743827
 21
113.3297438241743
 31
0.0
  0
LINE
  5
8D
330
1F
100
AcDbEntity
  8
0
  6
Continuous
 62
     7
100
AcDbLine
 10
68.17733457743827
 20
112.6725652897636
 30
0.0
 11
118.1773345774383
 21
112.6725652897636
 31
0.0
  0
LINE
  5
8E
330
1F
100
AcDbEntity
  8
0
  6
Continuous
 62
     7
100
AcDbLine
 10
68.17733457743827
 20
112.1869223585849
 30
0.0
 11
118.1773345774383
 21
112.186922358585
 31
0.0
  0
LINE
  5
8F
330
1F
100
AcDbEntity
  8
0
  6
Continuous
 62
     7
100
AcDbLine
 10
68.17733457743827
 20
110.8725652897636
 30
0.0
 11
118.1773345774383
 21
110.8725652897636
 31
0.0
  0
LINE
  5
90
330
1F
100
AcDbEntity
  8
0
  6
Continuous
 62
     7
100
AcDbLine
 10
118.1773345774383
 20
111.7725652897636
 30
0.0
 11
68.17733457743827
 21
111.7725652897636
 31
0.0
  0
LINE
  5
91
330
1F
100
AcDbEntity
  8
0
  6
Continuous
 62
     7
100
AcDbLine
 10
118.1773345774383
 20
111.286922358585
 30
0.0
 11
68.17733457743827
 21
111.286922358585
 31
0.0
  0
LINE
  5
92
330
1F
100
AcDbEntity
  8
0
  6
Continuous
 62
     7
100
AcDbLine
 10
68.17733457743827
 20
110.3869223585849
 30
0.0
 11
118.1773345774383
 21
110.386922358585
 31
0.0
  0
LINE
  5
93
330
1F
100
AcDbEntity
  8
0
  6
Continuous
 62
     7
100
AcDbLine
 10
68.17733457743827
 20
108.1725652897636
 30
0.0
 11
118.1773345774383
 21
108.1725652897636
 31
0.0
  0
LINE
  5
94
330
1F
100
AcDbEntity
  8
0
  6
Continuous
 62
     7
100
AcDbLine
 10
68.17733457743827
 20
107.6869223585849
 30
0.0
 11
118.1773345774383
 21
107.686922358585
 31
0.0
  0
LINE
  5
95
330
1F
100
AcDbEntity
  8
0
  6
Continuous
 62
     7
100
AcDbLine
 10
68.17733457743827
 20
107.2725652897636
 30
0.0
 11
118.1773345774383
 21
107.2725652897636
 31
0.0
  0
LINE
  5
96
330
1F
100
AcDbEntity
  8
0
  6
Continuous
 62
     7
100
AcDbLine
 10
68.17733457743827
 20
106.786922358585
 30
0.0
 11
118.1773345774383
 21
106.786922358585
 31
0.0
  0
LINE
  5
97
330
1F
100
AcDbEntity
  8
0
  6
Continuous
 62
     7
100
AcDbLine
 10
118.1773345774383
 20
109.9725652897636
 30
0.0
 11
68.17733457743827
 21
109.9725652897636
 31
0.0
  0
LINE
  5
98
330
1F
100
AcDbEntity
  8
0
  6
Continuous
 62
     7
100
AcDbLine
 10
87.51076595083532
 20
81.32974382417427
 30
0.0
 11
80.17733457743827
 21
81.32974382417427
 31
0.0
  0
LINE
  5
99
330
1F
100
AcDbEntity
  8
0
  6
Continuous
 62
     7
100
AcDbLine
 10
80.17733457743827
 20
81.32974382417427
 30
0.0
 11
68.17733457743827
 21
81.32974382417427
 31
0.0
  0
LINE
  5
9A
330
1F
100
AcDbEntity
  8
0
  6
Continuous
 62
     7
100
AcDbLine
 10
62.04243376322199
 20
110.8725652897636
 30
0.0
 11
61.81223539165455
 21
111.286922358585
 31
0.0
  0
LINE
  5
9B
330
1F
100
AcDbEntity
  8
0
  6
Continuous
 62
     7
100
AcDbLine
 10
68.17733457743827
 20
106.786922358585
 30
0.0
 11
62.04243376322199
 21
106.786922358585
 31
0.0
  0
LINE
  5
9C
330
1F
100
AcDbEntity
  8
0
  6
Continuous
 62
     7
100
AcDbLine
 10
68.17733457743827
 20
106.2430022756649
 30
0.0
 11
61.74025593937745
 21
106.2430022756649
 31
0.0
  0
LINE
  5
9D
330
1F
100
AcDbEntity
  8
0
  6
Continuous
 62
     7
100
AcDbLine
 10
68.17733457743827
 20
111.286922358585
 30
0.0
 11
61.81223539165455
 21
111.286922358585
 31
0.0
  0
LINE
  5
9E
330
1F
100
AcDbEntity
  8
0
  6
Continuous
 62
     7
100
AcDbLine
 10
68.17733457743827
 20
109.9725652897636
 30
0.0
 11
61.81223539165455
 21
109.9725652897636
 31
0.0
  0
LINE
  5
9F
330
1F
100
AcDbEntity
  8
0
  6
Continuous
 62
     7
100
AcDbLine
 10
68.17733457743827
 20
110.8725652897636
 30
0.0
 11
62.04243376322199
 21
110.8725652897636
 31
0.0
  0
LINE
  5
A0
330
1F
100
AcDbEntity
  8
0
  6
Continuous
 62
     7
100
AcDbLine
 10
68.17733457743827
 20
110.3869223585849
 30
0.0
 11
62.04243376322199
 21
110.3869223585849
 31
0.0
  0
LINE
  5
A1
330
1F
100
AcDbEntity
  8
0
  6
Continuous
 62
     7
100
AcDbLine
 10
68.17733457743827
 20
109.4869223585849
 30
0.0
 11
61.81223539165455
 21
109.4869223585849
 31
0.0
  0
LINE
  5
A2
330
1F
100
AcDbEntity
  8
0
  6
Continuous
 62
     7
100
AcDbLine
 10
62.04243376322199
 20
108.586922358585
 30
0.0
 11
61.81223539165455
 21
108.1725652897636
 31
0.0
  0
LINE
  5
A3
330
1F
100
AcDbEntity
  8
0
  6
Continuous
 62
     7
100
AcDbLine
 10
62.04243376322199
 20
109.0725652897636
 30
0.0
 11
61.81223539165455
 21
109.4869223585849
 31
0.0
  0
LINE
  5
A4
330
1F
100
AcDbEntity
  8
0
  6
Continuous
 62
     7
100
AcDbLine
 10
62.04243376322199
 20
107.2725652897636
 30
0.0
 11
61.81223539165455
 21
107.6869223585849
 31
0.0
  0
LINE
  5
A5
330
1F
100
AcDbEntity
  8
0
  6
Continuous
 62
     7
100
AcDbLine
 10
61.67733457743827
 20
106.0001808100756
 30
0.0
 11
61.67733457743827
 21
84.32974382417427
 31
0.0
  0
LINE
  5
A6
330
1F
100
AcDbEntity
  8
0
  6
Continuous
 62
     7
100
AcDbLine
 10
61.67733457743827
 20
113.7297438241737
 30
0.0
 11
61.67733457743827
 21
113.3297438241743
 31
0.0
  0
LINE
  5
A7
330
1F
100
AcDbEntity
  8
0
  6
Continuous
 62
     7
100
AcDbLine
 10
62.04243376322199
 20
110.3869223585849
 30
0.0
 11
61.81223539165455
 21
109.9725652897636
 31
0.0
  0
LINE
  5
A8
330
1F
100
AcDbEntity
  8
0
  6
Continuous
 62
     7
100
AcDbLine
 10
68.17733457743827
 20
107.6869223585849
 30
0.0
 11
61.81223539165455
 21
107.6869223585849
 31
0.0
  0
LINE
  5
A9
330
1F
100
AcDbEntity
  8
0
  6
Continuous
 62
     7
100
AcDbLine
 10
68.17733457743827
 20
107.2725652897636
 30
0.0
 11
62.04243376322199
 21
107.2725652897636
 31
0.0
  0
LINE
  5
AA
330
1F
100
AcDbEntity
  8
0
  6
Continuous
 62
     7
100
AcDbLine
 10
68.17733457743827
 20
108.1725652897636
 30
0.0
 11
61.81223539165455
 21
108.1725652897636
 31
0.0
  0
LINE
  5
AB
330
1F
100
AcDbEntity
  8
0
  6
Continuous
 62
     7
100
AcDbLine
 10
62.04243376322199
 20
106.786922358585
 30
0.0
 11
61.74025593937745
 21
106.2430022756649
 31
0.0
  0
LINE
  5
AC
330
1F
100
AcDbEntity
  8
0
  6
Continuous
 62
     7
100
AcDbLine
 10
68.17733457743827
 20
81.32974382417427
 30
0.0
 11
64.67733457743827
 21
81.32974382417427
 31
0.0
  0
LINE
  5
AD
330
1F
100
AcDbEntity
  8
0
  6
Continuous
 62
     7
100
AcDbLine
 10
61.17733411069787
 20
113.7297438241737
 30
0.0
 11
61.67733457743827
 21
113.7297438241737
 31
0.0
  0
LINE
  5
AE
330
1F
100
AcDbEntity
  8
0
  6
Continuous
 62
     7
100
AcDbLine
 10
60.92733411069798
 20
113.9797438241736
 30
0.0
 11
61.17733411069787
 21
113.7297438241737
 31
0.0
  0
LINE
  5
AF
330
1F
100
AcDbEntity
  8
0
  6
Continuous
 62
     7
100
AcDbLine
 10
81.17733457743827
 20
80.32974382417427
 30
0.0
 11
81.17733457743827
 21
67.32974382417427
 31
0.0
  0
LINE
  5
B0
330
1F
100
AcDbEntity
  8
0
  6
Continuous
 62
     7
100
AcDbLine
 10
68.17733457743827
 20
111.7725652897636
 30
0.0
 11
61.81223539165455
 21
111.7725652897636
 31
0.0
  0
LINE
  5
B1
330
1F
100
AcDbEntity
  8
0
  6
Continuous
 62
     7
100
AcDbLine
 10
62.04243376322199
 20
112.1869223585849
 30
0.0
 11
61.81223539165455
 21
111.7725652897636
 31
0.0
  0
LINE
  5
B2
330
1F
100
AcDbEntity
  8
0
  6
Continuous
 62
     7
100
AcDbLine
 10
68.17733457743827
 20
112.1869223585849
 30
0.0
 11
62.04243376322199
 21
112.1869223585849
 31
0.0
  0
LINE
  5
B3
330
1F
100
AcDbEntity
  8
0
  6
Continuous
 62
     7
100
AcDbLine
 10
68.17733457743827
 20
106.0001808100756
 30
0.0
 11
61.67733457743827
 21
106.0001808100756
 31
0.0
  0
LINE
  5
B4
330
1F
100
AcDbEntity
  8
0
  6
Continuous
 62
     7
100
AcDbLine
 10
68.17733457743827
 20
108.586922358585
 30
0.0
 11
62.04243376322199
 21
108.586922358585
 31
0.0
  0
LINE
  5
B5
330
1F
100
AcDbEntity
  8
0
  6
Continuous
 62
     7
100
AcDbLine
 10
68.17733457743827
 20
109.0725652897636
 30
0.0
 11
62.04243376322199
 21
109.0725652897636
 31
0.0
  0
LINE
  5
B6
330
1F
100
AcDbEntity
  8
0
  6
Continuous
 62
     7
100
AcDbLine
 10
68.17733457743827
 20
112.6725652897636
 30
0.0
 11
62.04243376322199
 21
112.6725652897636
 31
0.0
  0
LINE
  5
B7
330
1F
100
AcDbEntity
  8
0
  6
Continuous
 62
     7
100
AcDbLine
 10
61.67733457743827
 20
106.0001808100756
 30
0.0
 11
61.67733457743827
 21
113.3297438241743
 31
0.0
  0
LINE
  5
B8
330
1F
100
AcDbEntity
  8
0
  6
Continuous
 62
     7
100
AcDbLine
 10
62.04243376322199
 20
112.6725652897636
 30
0.0
 11
61.67733457743827
 21
113.3297438241743
 31
0.0
  0
LINE
  5
B9
330
1F
100
AcDbEntity
  8
0
  6
Continuous
 62
     7
100
AcDbLine
 10
130.677334110698
 20
115.2297438241743
 30
0.0
 11
130.677334110698
 21
119.0297438241743
 31
0.0
  0
LINE
  5
BA
330
1F
100
AcDbEntity
  8
0
  6
Continuous
 62
     7
100
AcDbLine
 10
125.427334110698
 20
120.2797438241743
 30
0.0
 11
125.177334110698
 21
120.5297438241743
 31
0.0
  0
LINE
  5
BB
330
1F
100
AcDbEntity
  8
0
  6
Continuous
 62
     7
100
AcDbLine
 10
125.177334110698
 20
113.7297438241743
 30
0.0
 11
124.6773345774383
 21
113.7297438241743
 31
0.0
  0
LINE
  5
BC
330
1F
100
AcDbEntity
  8
0
  6
Continuous
 62
     7
100
AcDbLine
 10
125.177334110698
 20
120.5297438241743
 30
0.0
 11
124.6773345774383
 21
120.5297438241743
 31
0.0
  0
LINE
  5
BD
330
1F
100
AcDbEntity
  8
0
  6
Continuous
 62
     7
100
AcDbLine
 10
125.427334110698
 20
113.9797438241744
 30
0.0
 11
125.177334110698
 21
113.7297438241743
 31
0.0
  0
LINE
  5
BE
330
1F
100
AcDbEntity
  8
0
  6
Continuous
 62
     7
100
AcDbLine
 10
125.177334110698
 20
113.7297438241743
 30
0.0
 11
125.177334110698
 21
120.5297438241743
 31
0.0
  0
LINE
  5
BF
330
1F
100
AcDbEntity
  8
0
  6
Continuous
 62
     7
100
AcDbLine
 10
124.6773345774383
 20
113.7297438241743
 30
0.0
 11
124.6773345774383
 21
113.3297438241743
 31
0.0
  0
LINE
  5
C0
330
1F
100
AcDbEntity
  8
0
  6
Continuous
 62
     7
100
AcDbLine
 10
124.6773345774383
 20
124.3876505441709
 30
0.0
 11
124.6773345774383
 21
120.5297438241743
 31
0.0
  0
LINE
  5
C1
330
1F
100
AcDbEntity
  8
0
  6
Continuous
 62
     7
100
AcDbLine
 10
124.6773345774383
 20
120.5297438241743
 30
0.0
 11
124.6773345774383
 21
113.7297438241743
 31
0.0
  0
LINE
  5
C2
330
1F
100
AcDbEntity
  8
1
  6
DOT_CENTER
 62
     7
100
AcDbLine
 10
60.92733411069798
 20
117.1297438241737
 30
0.0
 11
61.67733457743839
 21
117.1297438241737
 31
0.0
  0
LINE
  5
C3
330
1F
100
AcDbEntity
  8
1
  6
DOT_CENTER
 62
     7
100
AcDbLine
 10
125.427334110698
 20
117.1297438241743
 30
0.0
 11
124.6773345774383
 21
117.1297438241743
 31
0.0
  0
LINE
  5
C4
330
1F
100
AcDbEntity
  8
0
  6
Continuous
 62
     7
100
AcDbLine
 10
231.7773347032663
 20
121.6766212706768
 30
0.0
 11
231.7773347032663
 21
113.3297438241743
 31
0.0
  0
LINE
  5
C5
330
1F
100
AcDbEntity
  8
0
  6
Continuous
 62
     7
100
AcDbLine
 10
231.7773347032663
 20
106.0001808100756
 30
0.0
 11
225.2773347032663
 21
106.0001808100756
 31
0.0
  0
LINE
  5
C6
330
1F
100
AcDbEntity
  8
0
  6
Continuous
 62
     7
100
AcDbLine
 10
231.7144133413269
 20
106.2430022756649
 30
0.0
 11
225.2773347032663
 21
106.2430022756649
 31
0.0
  0
LINE
  5
C7
330
1F
100
AcDbEntity
  8
0
  6
Continuous
 62
     7
100
AcDbLine
 10
231.6424338890499
 20
107.686922358585
 30
0.0
 11
225.2773347032663
 21
107.686922358585
 31
0.0
  0
LINE
  5
C8
330
1F
100
AcDbEntity
  8
0
  6
Continuous
 62
     7
100
AcDbLine
 10
231.6424338890499
 20
108.1725652897636
 30
0.0
 11
225.2773347032663
 21
108.1725652897636
 31
0.0
  0
LINE
  5
C9
330
1F
100
AcDbEntity
  8
0
  6
Continuous
 62
     7
100
AcDbLine
 10
231.7773347032663
 20
106.0001808100756
 30
0.0
 11
231.7773347032663
 21
84.32974382417424
 31
0.0
  0
LINE
  5
CA
330
1F
100
AcDbEntity
  8
0
  6
Continuous
 62
     7
100
AcDbLine
 10
231.4122355174825
 20
106.786922358585
 30
0.0
 11
225.2773347032663
 21
106.786922358585
 31
0.0
  0
LINE
  5
CB
330
1F
100
AcDbEntity
  8
0
  6
Continuous
 62
     7
100
AcDbLine
 10
231.4122355174825
 20
107.2725652897636
 30
0.0
 11
225.2773347032663
 21
107.2725652897636
 31
0.0
  0
LINE
  5
CC
330
1F
100
AcDbEntity
  8
0
  6
Continuous
 62
     7
100
AcDbLine
 10
231.4122355174825
 20
107.2725652897636
 30
0.0
 11
231.6424338890499
 21
107.686922358585
 31
0.0
  0
LINE
  5
CD
330
1F
100
AcDbEntity
  8
0
  6
Continuous
 62
     7
100
AcDbLine
 10
231.4122355174825
 20
108.586922358585
 30
0.0
 11
225.2773347032663
 21
108.586922358585
 31
0.0
  0
LINE
  5
CE
330
1F
100
AcDbEntity
  8
0
  6
Continuous
 62
     7
100
AcDbLine
 10
231.6424338890499
 20
109.9725652897636
 30
0.0
 11
225.2773347032663
 21
109.9725652897636
 31
0.0
  0
LINE
  5
CF
330
1F
100
AcDbEntity
  8
0
  6
Continuous
 62
     7
100
AcDbLine
 10
231.4122355174825
 20
110.386922358585
 30
0.0
 11
225.2773347032663
 21
110.386922358585
 31
0.0
  0
LINE
  5
D0
330
1F
100
AcDbEntity
  8
0
  6
Continuous
 62
     7
100
AcDbLine
 10
231.4122355174825
 20
110.8725652897636
 30
0.0
 11
225.2773347032663
 21
110.8725652897636
 31
0.0
  0
LINE
  5
D1
330
1F
100
AcDbEntity
  8
0
  6
Continuous
 62
     7
100
AcDbLine
 10
231.4122355174825
 20
109.0725652897636
 30
0.0
 11
225.2773347032663
 21
109.0725652897636
 31
0.0
  0
LINE
  5
D2
330
1F
100
AcDbEntity
  8
0
  6
Continuous
 62
     7
100
AcDbLine
 10
231.6424338890499
 20
109.486922358585
 30
0.0
 11
225.2773347032663
 21
109.486922358585
 31
0.0
  0
LINE
  5
D3
330
1F
100
AcDbEntity
  8
0
  6
Continuous
 62
     7
100
AcDbLine
 10
231.6424338890499
 20
111.286922358585
 30
0.0
 11
225.2773347032663
 21
111.286922358585
 31
0.0
  0
LINE
  5
D4
330
1F
100
AcDbEntity
  8
0
  6
Continuous
 62
     7
100
AcDbLine
 10
231.6424338890499
 20
111.7725652897636
 30
0.0
 11
225.2773347032663
 21
111.7725652897636
 31
0.0
  0
LINE
  5
D5
330
1F
100
AcDbEntity
  8
0
  6
Continuous
 62
     7
100
AcDbLine
 10
231.4122355174825
 20
112.186922358585
 30
0.0
 11
225.2773347032663
 21
112.186922358585
 31
0.0
  0
LINE
  5
D6
330
1F
100
AcDbEntity
  8
0
  6
Continuous
 62
     7
100
AcDbLine
 10
231.7773347032663
 20
113.3297438241743
 30
0.0
 11
225.2773347032663
 21
113.3297438241743
 31
0.0
  0
LINE
  5
D7
330
1F
100
AcDbEntity
  8
0
  6
Continuous
 62
     7
100
AcDbLine
 10
231.4122355174825
 20
112.6725652897636
 30
0.0
 11
225.2773347032663
 21
112.6725652897636
 31
0.0
  0
LINE
  5
D8
330
1F
100
AcDbEntity
  8
0
  6
Continuous
 62
     7
100
AcDbLine
 10
231.4122355174825
 20
112.6725652897636
 30
0.0
 11
231.7773347032663
 21
113.3297438241743
 31
0.0
  0
LINE
  5
D9
330
1F
100
AcDbEntity
  8
0
  6
Continuous
 62
     7
100
AcDbLine
 10
231.4122355174825
 20
109.0725652897636
 30
0.0
 11
231.6424338890499
 21
109.486922358585
 31
0.0
  0
LINE
  5
DA
330
1F
100
AcDbEntity
  8
0
  6
Continuous
 62
     7
100
AcDbLine
 10
231.4122355174825
 20
110.386922358585
 30
0.0
 11
231.6424338890499
 21
109.9725652897636
 31
0.0
  0
LINE
  5
DB
330
1F
100
AcDbEntity
  8
0
  6
Continuous
 62
     7
100
AcDbLine
 10
231.4122355174825
 20
112.186922358585
 30
0.0
 11
231.6424338890499
 21
111.7725652897636
 31
0.0
  0
LINE
  5
DC
330
1F
100
AcDbEntity
  8
0
  6
Continuous
 62
     7
100
AcDbLine
 10
231.4122355174825
 20
110.8725652897636
 30
0.0
 11
231.6424338890499
 21
111.286922358585
 31
0.0
  0
LINE
  5
DD
330
1F
100
AcDbEntity
  8
0
  6
Continuous
 62
     7
100
AcDbLine
 10
231.4122355174825
 20
108.586922358585
 30
0.0
 11
231.6424338890499
 21
108.1725652897636
 31
0.0
  0
LINE
  5
DE
330
1F
100
AcDbEntity
  8
0
  6
Continuous
 62
     7
100
AcDbLine
 10
231.4122355174825
 20
106.786922358585
 30
0.0
 11
231.7144133413269
 21
106.2430022756649
 31
0.0
  0
LINE
  5
DF
330
1F
100
AcDbEntity
  8
0
  6
Continuous
 62
     7
100
AcDbLine
 10
215.5773347032661
 20
106.786922358585
 30
0.0
 11
208.8773347032661
 21
106.786922358585
 31
0.0
  0
LINE
  5
E0
330
1F
100
AcDbEntity
  8
0
  6
Continuous
 62
     7
100
AcDbLine
 10
225.2773347032663
 20
106.786922358585
 30
0.0
 11
218.5773347032661
 21
106.786922358585
 31
0.0
  0
LINE
  5
E1
330
1F
100
AcDbEntity
  8
0
  6
Continuous
 62
     7
100
AcDbLine
 10
225.2773347032663
 20
109.9725652897636
 30
0.0
 11
218.5773347032661
 21
109.9725652897636
 31
0.0
  0
LINE
  5
E2
330
1F
100
AcDbEntity
  8
0
  6
Continuous
 62
     7
100
AcDbLine
 10
225.2773347032663
 20
110.386922358585
 30
0.0
 11
218.5773347032661
 21
110.386922358585
 31
0.0
  0
LINE
  5
E3
330
1F
100
AcDbEntity
  8
0
  6
Continuous
 62
     7
100
AcDbLine
 10
215.5773347032661
 20
106.2430022756649
 30
0.0
 11
215.5773347032661
 21
106.0001808100756
 31
0.0
  0
LINE
  5
E4
330
1F
100
AcDbEntity
  8
0
  6
Continuous
 62
     7
100
AcDbLine
 10
215.5773347032661
 20
106.786922358585
 30
0.0
 11
215.5773347032661
 21
106.2430022756649
 31
0.0
  0
LINE
  5
E5
330
1F
100
AcDbEntity
  8
0
  6
Continuous
 62
     7
100
AcDbLine
 10
225.2773347032663
 20
108.586922358585
 30
0.0
 11
218.5773347032661
 21
108.586922358585
 31
0.0
  0
LINE
  5
E6
330
1F
100
AcDbEntity
  8
0
  6
Continuous
 62
     7
100
AcDbLine
 10
225.2773347032663
 20
107.2725652897636
 30
0.0
 11
218.5773347032661
 21
107.2725652897636
 31
0.0
  0
LINE
  5
E7
330
1F
100
AcDbEntity
  8
0
  6
Continuous
 62
     7
100
AcDbLine
 10
225.2773347032663
 20
108.1725652897636
 30
0.0
 11
218.5773347032661
 21
108.1725652897636
 31
0.0
  0
LINE
  5
E8
330
1F
100
AcDbEntity
  8
0
  6
Continuous
 62
     7
100
AcDbLine
 10
225.2773347032663
 20
107.686922358585
 30
0.0
 11
218.5773347032661
 21
107.686922358585
 31
0.0
  0
LINE
  5
E9
330
1F
100
AcDbEntity
  8
0
  6
Continuous
 62
     7
100
AcDbLine
 10
215.5773347032661
 20
107.686922358585
 30
0.0
 11
215.5773347032661
 21
107.2725652897636
 31
0.0
  0
LINE
  5
EA
330
1F
100
AcDbEntity
  8
0
  6
Continuous
 62
     7
100
AcDbLine
 10
215.5773347032661
 20
108.1725652897636
 30
0.0
 11
215.5773347032661
 21
107.686922358585
 31
0.0
  0
LINE
  5
EB
330
1F
100
AcDbEntity
  8
0
  6
Continuous
 62
     7
100
AcDbLine
 10
225.2773347032663
 20
109.0725652897636
 30
0.0
 11
218.5773347032661
 21
109.0725652897636
 31
0.0
  0
LINE
  5
EC
330
1F
100
AcDbEntity
  8
0
  6
Continuous
 62
     7
100
AcDbLine
 10
225.2773347032663
 20
109.486922358585
 30
0.0
 11
218.5773347032661
 21
109.486922358585
 31
0.0
  0
LINE
  5
ED
330
1F
100
AcDbEntity
  8
0
  6
Continuous
 62
     7
100
AcDbLine
 10
218.5773347032661
 20
109.9725652897636
 30
0.0
 11
218.5773347032661
 21
110.386922358585
 31
0.0
  0
LINE
  5
EE
330
1F
100
AcDbEntity
  8
0
  6
Continuous
 62
     7
100
AcDbLine
 10
218.5773347032661
 20
109.486922358585
 30
0.0
 11
218.5773347032661
 21
109.9725652897636
 31
0.0
  0
LINE
  5
EF
330
1F
100
AcDbEntity
  8
0
  6
Continuous
 62
     7
100
AcDbLine
 10
218.5773347032661
 20
109.0725652897636
 30
0.0
 11
218.5773347032661
 21
109.486922358585
 31
0.0
  0
LINE
  5
F0
330
1F
100
AcDbEntity
  8
0
  6
Continuous
 62
     7
100
AcDbLine
 10
218.5773347032661
 20
108.1725652897636
 30
0.0
 11
218.5773347032661
 21
108.586922358585
 31
0.0
  0
LINE
  5
F1
330
1F
100
AcDbEntity
  8
0
  6
Continuous
 62
     7
100
AcDbLine
 10
218.5773347032661
 20
107.686922358585
 30
0.0
 11
218.5773347032661
 21
108.1725652897636
 31
0.0
  0
LINE
  5
F2
330
1F
100
AcDbEntity
  8
0
  6
Continuous
 62
     7
100
AcDbLine
 10
218.5773347032661
 20
107.2725652897636
 30
0.0
 11
218.5773347032661
 21
107.686922358585
 31
0.0
  0
LINE
  5
F3
330
1F
100
AcDbEntity
  8
0
  6
Continuous
 62
     7
100
AcDbLine
 10
218.5773347032661
 20
106.786922358585
 30
0.0
 11
218.5773347032661
 21
107.2725652897636
 31
0.0
  0
LINE
  5
F4
330
1F
100
AcDbEntity
  8
0
  6
Continuous
 62
     7
100
AcDbLine
 10
218.5773347032661
 20
108.586922358585
 30
0.0
 11
218.5773347032661
 21
109.0725652897636
 31
0.0
  0
LINE
  5
F5
330
1F
100
AcDbEntity
  8
0
  6
Continuous
 62
     7
100
AcDbLine
 10
218.5773347032661
 20
106.2430022756649
 30
0.0
 11
218.5773347032661
 21
106.786922358585
 31
0.0
  0
LINE
  5
F6
330
1F
100
AcDbEntity
  8
0
  6
Continuous
 62
     7
100
AcDbLine
 10
218.5773347032661
 20
106.0001808100756
 30
0.0
 11
218.5773347032661
 21
106.2430022756649
 31
0.0
  0
LINE
  5
F7
330
1F
100
AcDbEntity
  8
0
  6
Continuous
 62
     7
100
AcDbLine
 10
208.8773347032661
 20
106.0001808100756
 30
0.0
 11
215.5773347032661
 21
106.0001808100756
 31
0.0
  0
LINE
  5
F8
330
1F
100
AcDbEntity
  8
0
  6
Continuous
 62
     7
100
AcDbLine
 10
218.5773347032661
 20
106.0001808100756
 30
0.0
 11
225.2773347032663
 21
106.0001808100756
 31
0.0
  0
LINE
  5
F9
330
1F
100
AcDbEntity
  8
0
  6
Continuous
 62
     7
100
AcDbLine
 10
225.2773347032663
 20
81.32974382417424
 30
0.0
 11
208.8773347032661
 21
81.32974382417424
 31
0.0
  0
LINE
  5
FA
330
1F
100
AcDbEntity
  8
0
  6
Continuous
 62
     7
100
AcDbLine
 10
228.0773347032661
 20
66.32974382417424
 30
0.0
 11
206.5684099247688
 21
66.32974382417424
 31
0.0
  0
LINE
  5
FB
330
1F
100
AcDbEntity
  8
0
  6
Continuous
 62
     7
100
AcDbLine
 10
215.5773347032661
 20
106.2430022756649
 30
0.0
 11
208.8773347032661
 21
106.2430022756649
 31
0.0
  0
LINE
  5
FC
330
1F
100
AcDbEntity
  8
0
  6
Continuous
 62
     7
100
AcDbLine
 10
225.2773347032663
 20
106.2430022756649
 30
0.0
 11
218.5773347032661
 21
106.2430022756649
 31
0.0
  0
LINE
  5
FD
330
1F
100
AcDbEntity
  8
0
  6
Continuous
 62
     7
100
AcDbLine
 10
215.5773347032661
 20
107.2725652897636
 30
0.0
 11
208.8773347032661
 21
107.2725652897636
 31
0.0
  0
LINE
  5
FE
330
1F
100
AcDbEntity
  8
0
  6
Continuous
 62
     7
100
AcDbLine
 10
215.5773347032661
 20
107.686922358585
 30
0.0
 11
208.8773347032661
 21
107.686922358585
 31
0.0
  0
LINE
  5
FF
330
1F
100
AcDbEntity
  8
0
  6
Continuous
 62
     7
100
AcDbLine
 10
215.5773347032661
 20
107.2725652897636
 30
0.0
 11
215.5773347032661
 21
106.786922358585
 31
0.0
  0
LINE
  5
100
330
1F
100
AcDbEntity
  8
0
  6
Continuous
 62
     7
100
AcDbLine
 10
202.3773347032661
 20
106.0001808100756
 30
0.0
 11
202.3773347032661
 21
84.32974382417424
 31
0.0
  0
LINE
  5
101
330
1F
100
AcDbEntity
  8
0
  6
Continuous
 62
     7
100
AcDbLine
 10
208.8773347032661
 20
108.1725652897636
 30
0.0
 11
202.5122355174825
 21
108.1725652897636
 31
0.0
  0
LINE
  5
102
330
1F
100
AcDbEntity
  8
0
  6
Continuous
 62
     7
100
AcDbLine
 10
208.8773347032661
 20
109.9725652897636
 30
0.0
 11
202.5122355174825
 21
109.9725652897636
 31
0.0
  0
LINE
  5
103
330
1F
100
AcDbEntity
  8
0
  6
Continuous
 62
     7
100
AcDbLine
 10
208.8773347032661
 20
107.2725652897636
 30
0.0
 11
202.7424338890498
 21
107.2725652897636
 31
0.0
  0
LINE
  5
104
330
1F
100
AcDbEntity
  8
0
  6
Continuous
 62
     7
100
AcDbLine
 10
208.8773347032661
 20
107.686922358585
 30
0.0
 11
202.5122355174825
 21
107.686922358585
 31
0.0
  0
LINE
  5
105
330
1F
100
AcDbEntity
  8
0
  6
Continuous
 62
     7
100
AcDbLine
 10
208.8773347032661
 20
113.3297438241743
 30
0.0
 11
202.3773347032661
 21
113.3297438241743
 31
0.0
  0
LINE
  5
106
330
1F
100
AcDbEntity
  8
0
  6
Continuous
 62
     7
100
AcDbLine
 10
202.7424338890498
 20
107.2725652897636
 30
0.0
 11
202.5122355174825
 21
107.686922358585
 31
0.0
  0
LINE
  5
107
330
1F
100
AcDbEntity
  8
0
  6
Continuous
 62
     7
100
AcDbLine
 10
202.7424338890498
 20
110.386922358585
 30
0.0
 11
202.5122355174825
 21
109.9725652897636
 31
0.0
  0
LINE
  5
108
330
1F
100
AcDbEntity
  8
0
  6
Continuous
 62
     7
100
AcDbLine
 10
208.8773347032661
 20
106.0001808100756
 30
0.0
 11
202.3773347032661
 21
106.0001808100756
 31
0.0
  0
LINE
  5
109
330
1F
100
AcDbEntity
  8
0
  6
Continuous
 62
     7
100
AcDbLine
 10
208.8773347032661
 20
106.2430022756649
 30
0.0
 11
202.4402560652055
 21
106.2430022756649
 31
0.0
  0
LINE
  5
10A
330
1F
100
AcDbEntity
  8
0
  6
Continuous
 62
     7
100
AcDbLine
 10
208.8773347032661
 20
106.786922358585
 30
0.0
 11
202.7424338890498
 21
106.786922358585
 31
0.0
  0
LINE
  5
10B
330
1F
100
AcDbEntity
  8
0
  6
Continuous
 62
     7
100
AcDbLine
 10
202.7424338890498
 20
112.186922358585
 30
0.0
 11
202.5122355174825
 21
111.7725652897636
 31
0.0
  0
LINE
  5
10C
330
1F
100
AcDbEntity
  8
0
  6
Continuous
 62
     7
100
AcDbLine
 10
202.7424338890498
 20
110.8725652897636
 30
0.0
 11
202.5122355174825
 21
111.286922358585
 31
0.0
  0
LINE
  5
10D
330
1F
100
AcDbEntity
  8
0
  6
Continuous
 62
     7
100
AcDbLine
 10
202.7424338890498
 20
108.586922358585
 30
0.0
 11
202.5122355174825
 21
108.1725652897636
 31
0.0
  0
LINE
  5
10E
330
1F
100
AcDbEntity
  8
0
  6
Continuous
 62
     7
100
AcDbLine
 10
202.7424338890498
 20
106.786922358585
 30
0.0
 11
202.4402560652055
 21
106.2430022756649
 31
0.0
  0
LINE
  5
10F
330
1F
100
AcDbEntity
  8
0
  6
Continuous
 62
     7
100
AcDbLine
 10
202.7424338890498
 20
112.6725652897636
 30
0.0
 11
202.3773347032661
 21
113.3297438241743
 31
0.0
  0
LINE
  5
110
330
1F
100
AcDbEntity
  8
0
  6
Continuous
 62
     7
100
AcDbLine
 10
218.5773347032661
 20
110.386922358585
 30
0.0
 11
218.5773347032661
 21
110.5998126558684
 31
0.0
  0
LINE
  5
111
330
1F
100
AcDbEntity
  8
0
  6
Continuous
 62
     7
100
AcDbLine
 10
208.8773347032661
 20
125.3297438241743
 30
0.0
 11
202.3773347032661
 21
125.3297438241743
 31
0.0
  0
LINE
  5
112
330
1F
100
AcDbEntity
  8
0
  6
Continuous
 62
     7
100
AcDbLine
 10
215.5773347032661
 20
108.586922358585
 30
0.0
 11
215.5773347032661
 21
108.1725652897636
 31
0.0
  0
LINE
  5
113
330
1F
100
AcDbEntity
  8
0
  6
Continuous
 62
     7
100
AcDbLine
 10
208.8773347032661
 20
108.586922358585
 30
0.0
 11
202.7424338890498
 21
108.586922358585
 31
0.0
  0
LINE
  5
114
330
1F
100
AcDbEntity
  8
0
  6
Continuous
 62
     7
100
AcDbLine
 10
215.5773347032661
 20
108.1725652897636
 30
0.0
 11
208.8773347032661
 21
108.1725652897636
 31
0.0
  0
LINE
  5
115
330
1F
100
AcDbEntity
  8
0
  6
Continuous
 62
     7
100
AcDbLine
 10
211.5591831930039
 20
113.3297438241743
 30
0.0
 11
208.8773347032661
 21
113.3297438241743
 31
0.0
  0
LINE
  5
116
330
1F
100
AcDbEntity
  8
0
  6
Continuous
 62
     7
100
AcDbLine
 10
215.5773347032661
 20
109.486922358585
 30
0.0
 11
215.5773347032661
 21
109.0725652897636
 31
0.0
  0
LINE
  5
117
330
1F
100
AcDbEntity
  8
0
  6
Continuous
 62
     7
100
AcDbLine
 10
215.5773347032661
 20
109.9725652897636
 30
0.0
 11
215.5773347032661
 21
109.486922358585
 31
0.0
  0
LINE
  5
118
330
1F
100
AcDbEntity
  8
0
  6
Continuous
 62
     7
100
AcDbLine
 10
215.5773347032661
 20
110.386922358585
 30
0.0
 11
215.5773347032661
 21
109.9725652897636
 31
0.0
  0
LINE
  5
119
330
1F
100
AcDbEntity
  8
0
  6
Continuous
 62
     7
100
AcDbLine
 10
215.5773347032661
 20
110.5998128186268
 30
0.0
 11
215.5773347032661
 21
110.386922358585
 31
0.0
  0
LINE
  5
11A
330
1F
100
AcDbEntity
  8
0
  6
Continuous
 62
     7
100
AcDbLine
 10
215.5773347032661
 20
109.0725652897636
 30
0.0
 11
215.5773347032661
 21
108.586922358585
 31
0.0
  0
LINE
  5
11B
330
1F
100
AcDbEntity
  8
0
  6
Continuous
 62
     7
100
AcDbLine
 10
208.8773347032661
 20
109.0725652897636
 30
0.0
 11
202.7424338890498
 21
109.0725652897636
 31
0.0
  0
LINE
  5
11C
330
1F
100
AcDbEntity
  8
0
  6
Continuous
 62
     7
100
AcDbLine
 10
215.5773347032661
 20
109.0725652897636
 30
0.0
 11
208.8773347032661
 21
109.0725652897636
 31
0.0
  0
LINE
  5
11D
330
1F
100
AcDbEntity
  8
0
  6
Continuous
 62
     7
100
AcDbLine
 10
215.5773347032661
 20
108.586922358585
 30
0.0
 11
208.8773347032661
 21
108.586922358585
 31
0.0
  0
LINE
  5
11E
330
1F
100
AcDbEntity
  8
0
  6
Continuous
 62
     7
100
AcDbLine
 10
208.8773347032661
 20
110.386922358585
 30
0.0
 11
202.7424338890498
 21
110.386922358585
 31
0.0
  0
LINE
  5
11F
330
1F
100
AcDbEntity
  8
0
  6
Continuous
 62
     7
100
AcDbLine
 10
214.6819818918139
 20
110.8725652897636
 30
0.0
 11
208.8773347032661
 21
110.8725652897636
 31
0.0
  0
LINE
  5
120
330
1F
100
AcDbEntity
  8
0
  6
Continuous
 62
     7
100
AcDbLine
 10
215.5773347032661
 20
109.9725652897636
 30
0.0
 11
208.8773347032661
 21
109.9725652897636
 31
0.0
  0
LINE
  5
121
330
1F
100
AcDbEntity
  8
0
  6
Continuous
 62
     7
100
AcDbLine
 10
215.5773347032661
 20
110.386922358585
 30
0.0
 11
208.8773347032661
 21
110.386922358585
 31
0.0
  0
LINE
  5
122
330
1F
100
AcDbEntity
  8
0
  6
Continuous
 62
     7
100
AcDbLine
 10
208.8773347032661
 20
109.486922358585
 30
0.0
 11
202.5122355174825
 21
109.486922358585
 31
0.0
  0
LINE
  5
123
330
1F
100
AcDbEntity
  8
0
  6
Continuous
 62
     7
100
AcDbLine
 10
215.5773347032661
 20
109.486922358585
 30
0.0
 11
208.8773347032661
 21
109.486922358585
 31
0.0
  0
LINE
  5
124
330
1F
100
AcDbEntity
  8
0
  6
Continuous
 62
     7
100
AcDbLine
 10
213.7983966132711
 20
111.286922358585
 30
0.0
 11
208.8773347032661
 21
111.286922358585
 31
0.0
  0
LINE
  5
125
330
1F
100
AcDbEntity
  8
0
  6
Continuous
 62
     7
100
AcDbLine
 10
213.0535758512114
 20
111.7725652897636
 30
0.0
 11
208.8773347032661
 21
111.7725652897636
 31
0.0
  0
LINE
  5
126
330
1F
100
AcDbEntity
  8
0
  6
Continuous
 62
     7
100
AcDbLine
 10
212.0749796610826
 20
112.6725652897636
 30
0.0
 11
208.8773347032661
 21
112.6725652897636
 31
0.0
  0
LINE
  5
127
330
1F
100
AcDbEntity
  8
0
  6
Continuous
 62
     7
100
AcDbLine
 10
212.5542259543477
 20
112.186922358585
 30
0.0
 11
208.8773347032661
 21
112.186922358585
 31
0.0
  0
LINE
  5
128
330
1F
100
AcDbEntity
  8
0
  6
Continuous
 62
     7
100
AcDbLine
 10
208.8773347032661
 20
110.8725652897636
 30
0.0
 11
202.7424338890498
 21
110.8725652897636
 31
0.0
  0
LINE
  5
129
330
1F
100
AcDbEntity
  8
0
  6
Continuous
 62
     7
100
AcDbLine
 10
208.8773347032661
 20
112.6725652897636
 30
0.0
 11
202.7424338890498
 21
112.6725652897636
 31
0.0
  0
LINE
  5
12A
330
1F
100
AcDbEntity
  8
0
  6
Continuous
 62
     7
100
AcDbLine
 10
208.8773347032661
 20
112.186922358585
 30
0.0
 11
202.7424338890498
 21
112.186922358585
 31
0.0
  0
LINE
  5
12B
330
1F
100
AcDbEntity
  8
0
  6
Continuous
 62
     7
100
AcDbLine
 10
208.8773347032661
 20
111.7725652897636
 30
0.0
 11
202.5122355174825
 21
111.7725652897636
 31
0.0
  0
LINE
  5
12C
330
1F
100
AcDbEntity
  8
0
  6
Continuous
 62
     7
100
AcDbLine
 10
208.8773347032661
 20
111.286922358585
 30
0.0
 11
202.5122355174825
 21
111.286922358585
 31
0.0
  0
LINE
  5
12D
330
1F
100
AcDbEntity
  8
0
  6
Continuous
 62
     7
100
AcDbLine
 10
202.7424338890498
 20
109.0725652897636
 30
0.0
 11
202.5122355174825
 21
109.486922358585
 31
0.0
  0
LINE
  5
12E
330
1F
100
AcDbEntity
  8
0
  6
Continuous
 62
     7
100
AcDbLine
 10
208.8773347032661
 20
125.3297438241743
 30
0.0
 11
216.0466879359614
 21
125.3297438241744
 31
0.0
  0
LINE
  5
12F
330
1F
100
AcDbEntity
  8
0
  6
Continuous
 62
     7
100
AcDbLine
 10
225.2773347032663
 20
112.186922358585
 30
0.0
 11
221.6004441607188
 21
112.186922358585
 31
0.0
  0
LINE
  5
130
330
1F
100
AcDbEntity
  8
0
  6
Continuous
 62
     7
100
AcDbLine
 10
225.2773347032663
 20
113.3297438241743
 30
0.0
 11
222.8264045032261
 21
113.3297438241743
 31
0.0
  0
LINE
  5
131
330
1F
100
AcDbEntity
  8
0
  6
Continuous
 62
     7
100
AcDbLine
 10
225.2773347032663
 20
112.6725652897636
 30
0.0
 11
222.1216668060242
 21
112.6725652897636
 31
0.0
  0
LINE
  5
132
330
1F
100
AcDbEntity
  8
0
  6
Continuous
 62
     7
100
AcDbLine
 10
225.2773347032663
 20
111.7725652897636
 30
0.0
 11
221.1010942638553
 21
111.7725652897636
 31
0.0
  0
LINE
  5
133
330
1F
100
AcDbEntity
  8
0
  6
Continuous
 62
     7
100
AcDbLine
 10
225.2773347032663
 20
111.286922358585
 30
0.0
 11
220.3562735017954
 21
111.286922358585
 31
0.0
  0
LINE
  5
134
330
1F
100
AcDbEntity
  8
0
  6
Continuous
 62
     7
100
AcDbLine
 10
225.2773347032663
 20
110.8725652897636
 30
0.0
 11
219.4726882232527
 21
110.8725652897636
 31
0.0
  0
LINE
  5
135
330
1F
100
AcDbEntity
  8
0
  6
Continuous
 62
     7
100
AcDbLine
 10
229.0773347032661
 20
80.54688776026845
 30
0.0
 11
229.0773347032661
 21
67.32974382417424
 31
0.0
  0
LINE
  5
136
330
1F
100
AcDbEntity
  8
0
  6
Continuous
 62
     7
100
AcDbLine
 10
228.7773347032663
 20
81.32974382417424
 30
0.0
 11
225.2773347032663
 21
81.32974382417424
 31
0.0
  0
LINE
  5
137
330
1F
100
AcDbEntity
  8
0
  6
Continuous
 62
     7
100
AcDbLine
 10
208.8773347032661
 20
81.32974382417424
 30
0.0
 11
205.3773347032661
 21
81.32974382417424
 31
0.0
  0
LINE
  5
138
330
1F
100
AcDbEntity
  8
0
  6
Continuous
 62
     7
100
AcDbLine
 10
202.3773347032661
 20
125.3297438241743
 30
0.0
 11
202.3773347032661
 21
113.3297438241743
 31
0.0
  0
LINE
  5
139
330
1F
100
AcDbEntity
  8
0
  6
Continuous
 62
     7
100
AcDbLine
 10
241.0067965482544
 20
142.5585756957376
 30
0.0
 11
240.9792328126727
 21
142.4624495261441
 31
0.0
  0
LINE
  5
13A
330
1F
100
AcDbEntity
  8
0
  6
Continuous
 62
     7
100
AcDbLine
 10
240.0515467642558
 20
142.7616203053605
 30
0.0
 11
240.0376294541598
 21
142.6625934984864
 31
0.0
  0
LINE
  5
13B
330
1F
100
AcDbEntity
  8
0
  6
Continuous
 62
     7
100
AcDbLine
 10
239.0993205051536
 20
142.8297438241715
 30
0.0
 11
232.7773350575273
 21
142.8297438241723
 31
0.0
  0
LINE
  5
13C
330
1F
100
AcDbEntity
  8
0
  6
Continuous
 62
     7
100
AcDbLine
 10
239.4602791849703
 20
142.8297438241723
 30
0.0
 11
239.0993205051536
 21
142.8297438241715
 31
0.0
  0
LINE
  5
13D
330
1F
100
AcDbEntity
  8
0
  6
Continuous
 62
     7
100
AcDbLine
 10
241.8838178947584
 20
142.1332074819033
 30
0.0
 11
241.9244915590659
 21
142.2245620276675
 31
0.0
  0
LINE
  5
13E
330
1F
100
AcDbEntity
  8
0
  6
Continuous
 62
     7
100
AcDbLine
 10
242.7867699071691
 20
141.7660804972632
 30
0.0
 11
242.7337779807444
 21
141.6812756876485
 31
0.0
  0
LINE
  5
13F
330
1F
100
AcDbEntity
  8
0
  6
Continuous
 62
     7
100
AcDbLine
 10
243.5768483253409
 20
141.1920549260018
 30
0.0
 11
243.5125695643727
 21
141.1154504816899
 31
0.0
  0
LINE
  5
140
330
1F
100
AcDbEntity
  8
0
  6
Continuous
 62
     7
100
AcDbLine
 10
244.2793488358769
 20
140.513658068681
 30
0.0
 11
244.2050343533293
 21
140.4467450080452
 31
0.0
  0
LINE
  5
141
330
1F
100
AcDbEntity
  8
0
  6
Continuous
 62
     7
100
AcDbLine
 10
244.7976943081648
 20
139.6881748581171
 30
0.0
 11
244.8805980654203
 21
139.7440941484642
 31
0.0
  0
LINE
  5
142
330
1F
100
AcDbEntity
  8
0
  6
Continuous
 62
     7
100
AcDbLine
 10
245.3688933816291
 20
138.8983418516924
 30
0.0
 11
245.2790139769992
 21
138.8545047370136
 31
0.0
  0
LINE
  5
143
330
1F
100
AcDbEntity
  8
0
  6
Continuous
 62
     7
100
AcDbLine
 10
245.7347306716009
 20
137.9928627847935
 30
0.0
 11
245.6396250199715
 21
137.961961085356
 31
0.0
  0
LINE
  5
144
330
1F
100
AcDbEntity
  8
0
  6
Continuous
 62
     7
100
AcDbLine
 10
245.8725085533191
 20
137.0279162500706
 30
0.0
 11
245.9709893286202
 21
137.0452810678373
 31
0.0
  0
LINE
  5
145
330
1F
100
AcDbEntity
  8
0
  6
Continuous
 62
     7
100
AcDbLine
 10
246.0730708466683
 20
136.0740403010863
 30
0.0
 11
245.9731317639664
 21
136.0705503514161
 31
0.0
  0
LINE
  5
146
330
1F
100
AcDbEntity
  8
0
  6
Continuous
 62
     7
100
AcDbLine
 10
245.9395361355756
 20
135.108497427622
 30
0.0
 11
246.0389883251124
 21
135.0980445812952
 31
0.0
  0
LINE
  5
147
330
1F
100
AcDbEntity
  8
0
  6
Continuous
 62
     7
100
AcDbLine
 10
239.0773350592337
 20
128.7910528309344
 30
0.0
 11
239.0773350575299
 21
128.4839817298382
 31
0.0
  0
LINE
  5
148
330
1F
100
AcDbEntity
  8
0
  6
Continuous
 62
     7
100
AcDbLine
 10
239.0773350575334
 20
128.9297438241696
 30
0.0
 11
239.0773350592337
 21
128.7910528309344
 31
0.0
  0
LINE
  5
149
330
1F
100
AcDbEntity
  8
0
  6
Continuous
 62
     7
100
AcDbLine
 10
241.437274046481
 20
129.3458647407465
 30
0.0
 11
241.4714760608135
 21
129.2518954786678
 31
0.0
  0
LINE
  5
14A
330
1F
100
AcDbEntity
  8
0
  6
Continuous
 62
     7
100
AcDbLine
 10
240.5327168932582
 20
128.9827106190327
 30
0.0
 11
240.5119257241764
 21
129.080525379106
 31
0.0
  0
LINE
  5
14B
330
1F
100
AcDbEntity
  8
0
  6
Continuous
 62
     7
100
AcDbLine
 10
242.3636359970352
 20
129.6491106741567
 30
0.0
 11
242.3166888407565
 21
129.7374054334426
 31
0.0
  0
LINE
  5
14C
330
1F
100
AcDbEntity
  8
0
  6
Continuous
 62
     7
100
AcDbLine
 10
239.5586547263683
 20
128.9465518773767
 30
0.0
 11
239.5656303737426
 21
128.8467954723507
 31
0.0
  0
LINE
  5
14D
330
1F
100
AcDbEntity
  8
0
  6
Continuous
 62
     7
100
AcDbLine
 10
243.939943650747
 20
130.7943652217984
 30
0.0
 11
243.8704778137013
 21
130.8662992018322
 31
0.0
  0
LINE
  5
14E
330
1F
100
AcDbEntity
  8
0
  6
Continuous
 62
     7
100
AcDbLine
 10
243.133053298352
 20
130.2475265629819
 30
0.0
 11
243.1918318235813
 21
130.1666248635444
 31
0.0
  0
LINE
  5
14F
330
1F
100
AcDbEntity
  8
0
  6
Continuous
 62
     7
100
AcDbLine
 10
244.5146092574206
 20
131.5816796444219
 30
0.0
 11
244.5934103327812
 21
131.5201134968893
 31
0.0
  0
LINE
  5
150
330
1F
100
AcDbEntity
  8
0
  6
Continuous
 62
     7
100
AcDbLine
 10
245.1395128840252
 20
132.3297438241689
 30
0.0
 11
245.0529103436468
 21
132.3797438241689
 31
0.0
  0
LINE
  5
151
330
1F
100
AcDbEntity
  8
0
  6
Continuous
 62
     7
100
AcDbLine
 10
245.4749036540453
 20
133.244958329599
 30
0.0
 11
245.5676220395019
 21
133.2074976702574
 31
0.0
  0
LINE
  5
152
330
1F
100
AcDbEntity
  8
0
  6
Continuous
 62
     7
100
AcDbLine
 10
245.8694051414664
 20
134.1362905549711
 30
0.0
 11
245.7723755688388
 21
134.1604827445311
 31
0.0
  0
LINE
  5
153
330
1F
100
AcDbEntity
  8
0
  6
Continuous
 62
     7
100
AcDbLine
 10
231.7773347032663
 20
121.6766212706768
 30
0.0
 11
233.1183342375564
 21
122.927123566906
 31
0.0
  0
LINE
  5
154
330
1F
100
AcDbEntity
  8
0
  6
Continuous
 62
     7
100
AcDbLine
 10
233.1183342375564
 20
122.927123566906
 30
0.0
 11
239.0773350575299
 21
128.4839817298382
 31
0.0
  0
LINE
  5
155
330
1F
100
AcDbEntity
  8
0
  6
Continuous
 62
     7
100
AcDbLine
 10
215.2863431721468
 20
134.9297438241743
 30
0.0
 11
213.8851041637641
 21
134.9297438241743
 31
0.0
  0
LINE
  5
156
330
1F
100
AcDbEntity
  8
0
  6
Continuous
 62
     7
100
AcDbLine
 10
215.7863431721468
 20
135.6297438241717
 30
0.0
 11
215.7863431721468
 21
135.4297438241743
 31
0.0
  0
LINE
  5
157
330
1F
100
AcDbEntity
  8
0
  6
Continuous
 62
     7
100
AcDbLine
 10
217.0773350575356
 20
134.9297438241743
 30
0.0
 11
215.2863431721468
 21
134.9297438241743
 31
0.0
  0
LINE
  5
158
330
1F
100
AcDbEntity
  8
0
  6
Continuous
 62
     7
100
AcDbLine
 10
231.7773347032663
 20
121.6766212706768
 30
0.0
 11
221.6467240699523
 21
112.229674023325
 31
0.0
  0
LINE
  5
159
330
1F
100
AcDbEntity
  8
0
  6
Continuous
 62
     7
100
AcDbLine
 10
221.8307590093523
 20
121.562100715839
 30
0.0
 11
226.4873268578456
 21
125.9044204841817
 31
0.0
  0
LINE
  5
15A
330
1F
100
AcDbEntity
  8
0
  6
Continuous
 62
     7
100
AcDbLine
 10
212.5079460451148
 20
122.0298136250133
 30
0.0
 11
216.0466879359614
 21
125.3297438241744
 31
0.0
  0
LINE
  5
15B
330
1F
100
AcDbEntity
  8
0
  6
Continuous
 62
     7
100
AcDbLine
 10
229.475704710585
 20
123.190372902439
 30
0.0
 11
222.1293841915601
 21
116.3398181908472
 31
0.0
  0
LINE
  5
15C
330
1F
100
AcDbEntity
  8
0
  6
Continuous
 62
     7
100
AcDbLine
 10
218.5773350575356
 20
133.4297438241743
 30
0.0
 11
218.5773350575356
 21
127.6896104427325
 31
0.0
  0
LINE
  5
15D
330
1F
100
AcDbEntity
  8
0
  6
Continuous
 62
     7
100
AcDbLine
 10
218.5773350575356
 20
135.3297438241689
 30
0.0
 11
218.5773350575356
 21
133.4297438241743
 31
0.0
  0
LINE
  5
15E
330
1F
100
AcDbEntity
  8
0
  6
Continuous
 62
     7
100
AcDbLine
 10
216.0466879359614
 20
125.3297438241744
 30
0.0
 11
218.5773350575356
 21
127.6896104427325
 31
0.0
  0
LINE
  5
15F
330
1F
100
AcDbEntity
  8
0
  6
Continuous
 62
     7
100
AcDbLine
 10
232.7773350575273
 20
142.8297438241723
 30
0.0
 11
214.6190774880413
 21
142.8297438241723
 31
0.0
  0
LINE
  5
160
330
1F
100
AcDbEntity
  8
0
  6
Continuous
 62
     7
100
AcDbLine
 10
223.5474707223144
 20
137.4770719660301
 30
0.0
 11
222.484453793906
 21
137.6075940328171
 31
0.0
  0
LINE
  5
161
330
1F
100
AcDbEntity
  8
0
  6
Continuous
 62
     7
100
AcDbLine
 10
222.484453793906
 20
137.6075940328171
 30
0.0
 11
222.6657344422222
 21
139.0840064333834
 31
0.0
  0
LINE
  5
162
330
1F
100
AcDbEntity
  8
0
  6
Continuous
 62
     7
100
AcDbLine
 10
222.6657344422222
 20
139.0840064333834
 30
0.0
 11
222.3873252466856
 21
139.1181907842087
 31
0.0
  0
LINE
  5
163
330
1F
100
AcDbEntity
  8
0
  6
Continuous
 62
     7
100
AcDbLine
 10
223.5215734868401
 20
137.2661559088064
 30
0.0
 11
223.5474707223144
 21
137.4770719660301
 31
0.0
  0
LINE
  5
164
330
1F
100
AcDbEntity
  8
0
  6
Continuous
 62
     7
100
AcDbLine
 10
222.1801473628969
 20
137.4308623264184
 30
0.0
 11
223.5215734868401
 21
137.2661559088064
 31
0.0
  0
LINE
  5
165
330
1F
100
AcDbEntity
  8
0
  6
Continuous
 62
     7
100
AcDbLine
 10
224.6359119899281
 20
137.954954675176
 30
0.0
 11
224.5611846616044
 21
137.7789081219532
 31
0.0
  0
LINE
  5
166
330
1F
100
AcDbEntity
  8
0
  6
Continuous
 62
     7
100
AcDbLine
 10
220.5792309555221
 20
137.3794962933513
 30
0.0
 11
220.8597309555219
 21
137.3794962933513
 31
0.0
  0
LINE
  5
167
330
1F
100
AcDbEntity
  8
0
  6
Continuous
 62
     7
100
AcDbLine
 10
220.8597309555219
 20
137.3794962933513
 30
0.0
 11
220.8597309555219
 21
139.0794962933513
 31
0.0
  0
LINE
  5
168
330
1F
100
AcDbEntity
  8
0
  6
Continuous
 62
     7
100
AcDbLine
 10
220.8597309555219
 20
139.0794962933513
 30
0.0
 11
220.5792309555221
 21
139.0794962933513
 31
0.0
  0
LINE
  5
169
330
1F
100
AcDbEntity
  8
0
  6
Continuous
 62
     7
100
AcDbLine
 10
220.5792309555221
 20
139.0794962933513
 30
0.0
 11
220.5792309555221
 21
137.3794962933513
 31
0.0
  0
LINE
  5
16A
330
1F
100
AcDbEntity
  8
0
  6
Continuous
 62
     7
100
AcDbLine
 10
222.5773350575334
 20
136.3297438241689
 30
0.0
 11
219.5773350575356
 21
136.3297438241689
 31
0.0
  0
LINE
  5
16B
330
1F
100
AcDbEntity
  8
0
  6
Continuous
 62
     7
100
AcDbLine
 10
221.9773350575334
 20
139.6297438241717
 30
0.0
 11
219.7863431721468
 21
139.6297438241717
 31
0.0
  0
LINE
  5
16C
330
1F
100
AcDbEntity
  8
0
  6
Continuous
 62
     7
100
AcDbLine
 10
222.3873252466856
 20
139.1181907842087
 30
0.0
 11
222.1801473628969
 21
137.4308623264184
 31
0.0
  0
LINE
  5
16D
330
1F
100
AcDbEntity
  8
0
  6
Continuous
 62
     7
100
AcDbLine
 10
224.5611846616044
 20
137.7789081219532
 30
0.0
 11
225.609639689687
 21
137.3338653666039
 31
0.0
  0
LINE
  5
16E
330
1F
100
AcDbEntity
  8
0
  6
Continuous
 62
     7
100
AcDbLine
 10
225.6843670180103
 20
137.5099119198265
 30
0.0
 11
224.6359119899281
 21
137.954954675176
 31
0.0
  0
LINE
  5
16F
330
1F
100
AcDbEntity
  8
0
  6
Continuous
 62
     7
100
AcDbLine
 10
229.3773128674658
 20
130.9244110818671
 30
0.0
 11
230.6098128674657
 21
130.9244110818671
 31
0.0
  0
LINE
  5
170
330
1F
100
AcDbEntity
  8
0
  6
Continuous
 62
     7
100
AcDbLine
 10
229.3773128674658
 20
130.4654110818671
 30
0.0
 11
229.3773128674658
 21
130.9244110818671
 31
0.0
  0
LINE
  5
171
330
1F
100
AcDbEntity
  8
0
  6
Continuous
 62
     7
100
AcDbLine
 10
229.7810628674658
 20
129.5984110818671
 30
0.0
 11
229.929812867466
 21
129.5729110818671
 31
0.0
  0
LINE
  5
172
330
1F
100
AcDbEntity
  8
0
  6
Continuous
 62
     7
100
AcDbLine
 10
229.929812867466
 20
129.8534110818671
 30
0.0
 11
229.7810628674659
 21
129.8789110818671
 31
0.0
  0
LINE
  5
173
330
1F
100
AcDbEntity
  8
0
  6
Continuous
 62
     7
100
AcDbLine
 10
230.2060628674662
 20
129.5984110818672
 30
0.0
 11
230.3973128674663
 21
129.6749110818674
 31
0.0
  0
LINE
  5
174
330
1F
100
AcDbEntity
  8
0
  6
Continuous
 62
     7
100
AcDbLine
 10
230.3335628674657
 20
129.9299110818671
 30
0.0
 11
230.2060628674659
 21
129.8789110818671
 31
0.0
  0
LINE
  5
175
330
1F
100
AcDbEntity
  8
0
  6
Continuous
 62
     7
100
AcDbLine
 10
230.3973128674663
 20
129.6749110818674
 30
0.0
 11
230.5460628674668
 21
129.7769110818677
 31
0.0
  0
LINE
  5
176
330
1F
100
AcDbEntity
  8
0
  6
Continuous
 62
     7
100
AcDbLine
 10
230.4398128674658
 20
130.0064110818672
 30
0.0
 11
230.3335628674657
 21
129.9299110818671
 31
0.0
  0
LINE
  5
177
330
1F
100
AcDbEntity
  8
0
  6
Continuous
 62
     7
100
AcDbLine
 10
230.5035628674658
 20
130.082911081867
 30
0.0
 11
230.4398128674658
 21
130.0064110818672
 31
0.0
  0
LINE
  5
178
330
1F
100
AcDbEntity
  8
0
  6
Continuous
 62
     7
100
AcDbLine
 10
230.5460628674658
 20
130.1594110818672
 30
0.0
 11
230.5035628674658
 21
130.082911081867
 31
0.0
  0
LINE
  5
179
330
1F
100
AcDbEntity
  8
0
  6
Continuous
 62
     7
100
AcDbLine
 10
229.3985628674656
 20
130.2869110818671
 30
0.0
 11
229.3773128674658
 21
130.4654110818671
 31
0.0
  0
LINE
  5
17A
330
1F
100
AcDbEntity
  8
0
  6
Continuous
 62
     7
100
AcDbLine
 10
229.3560628674657
 20
129.878911081867
 30
0.0
 11
229.4623128674664
 21
129.7769110818666
 31
0.0
  0
LINE
  5
17B
330
1F
100
AcDbEntity
  8
0
  6
Continuous
 62
     7
100
AcDbLine
 10
229.4410628674658
 20
130.159411081867
 30
0.0
 11
229.3985628674656
 21
130.2869110818671
 31
0.0
  0
LINE
  5
17C
330
1F
100
AcDbEntity
  8
0
  6
Continuous
 62
     7
100
AcDbLine
 10
229.4835628674658
 20
130.082911081867
 30
0.0
 11
229.4410628674658
 21
130.159411081867
 31
0.0
  0
LINE
  5
17D
330
1F
100
AcDbEntity
  8
0
  6
Continuous
 62
     7
100
AcDbLine
 10
229.4623128674664
 20
129.7769110818666
 30
0.0
 11
229.589812867466
 21
129.674911081867
 31
0.0
  0
LINE
  5
17E
330
1F
100
AcDbEntity
  8
0
  6
Continuous
 62
     7
100
AcDbLine
 10
229.5473128674658
 20
130.006411081867
 30
0.0
 11
229.4835628674658
 21
130.082911081867
 31
0.0
  0
LINE
  5
17F
330
1F
100
AcDbEntity
  8
0
  6
Continuous
 62
     7
100
AcDbLine
 10
229.589812867466
 20
129.674911081867
 30
0.0
 11
229.7810628674658
 21
129.5984110818671
 31
0.0
  0
LINE
  5
180
330
1F
100
AcDbEntity
  8
0
  6
Continuous
 62
     7
100
AcDbLine
 10
229.7810628674659
 20
129.8789110818671
 30
0.0
 11
229.6535628674658
 21
129.929911081867
 31
0.0
  0
LINE
  5
181
330
1F
100
AcDbEntity
  8
0
  6
Continuous
 62
     7
100
AcDbLine
 10
229.2073128674658
 20
130.1339110818671
 30
0.0
 11
229.2498128674657
 21
130.031911081867
 31
0.0
  0
LINE
  5
182
330
1F
100
AcDbEntity
  8
0
  6
Continuous
 62
     7
100
AcDbLine
 10
229.1648128674659
 20
130.2869110818669
 30
0.0
 11
229.2073128674658
 21
130.1339110818671
 31
0.0
  0
LINE
  5
183
330
1F
100
AcDbEntity
  8
0
  6
Continuous
 62
     7
100
AcDbLine
 10
229.929812867466
 20
129.5729110818671
 30
0.0
 11
230.0573128674662
 21
129.5729110818672
 31
0.0
  0
LINE
  5
184
330
1F
100
AcDbEntity
  8
0
  6
Continuous
 62
     7
100
AcDbLine
 10
230.0573128674657
 20
129.8534110818671
 30
0.0
 11
229.929812867466
 21
129.8534110818671
 31
0.0
  0
LINE
  5
185
330
1F
100
AcDbEntity
  8
0
  6
Continuous
 62
     7
100
AcDbLine
 10
230.0573128674662
 20
129.5729110818672
 30
0.0
 11
230.2060628674662
 21
129.5984110818672
 31
0.0
  0
LINE
  5
186
330
1F
100
AcDbEntity
  8
0
  6
Continuous
 62
     7
100
AcDbLine
 10
230.2060628674659
 20
129.8789110818671
 30
0.0
 11
230.0573128674657
 21
129.8534110818671
 31
0.0
  0
LINE
  5
187
330
1F
100
AcDbEntity
  8
0
  6
Continuous
 62
     7
100
AcDbLine
 10
228.0773350575334
 20
129.5611889922779
 30
0.0
 11
228.0773350575334
 21
130.8297438241689
 31
0.0
  0
LINE
  5
188
330
1F
100
AcDbEntity
  8
0
  6
Continuous
 62
     7
100
AcDbLine
 10
229.2498128674657
 20
130.031911081867
 30
0.0
 11
229.3560628674657
 21
129.878911081867
 31
0.0
  0
LINE
  5
189
330
1F
100
AcDbEntity
  8
0
  6
Continuous
 62
     7
100
AcDbLine
 10
229.6535628674658
 20
129.929911081867
 30
0.0
 11
229.5473128674658
 21
130.006411081867
 31
0.0
  0
LINE
  5
18A
330
1F
100
AcDbEntity
  8
0
  6
Continuous
 62
     7
100
AcDbLine
 10
229.5505477417617
 20
133.9814340799015
 30
0.0
 11
229.6649179068308
 21
134.079903759712
 31
0.0
  0
LINE
  5
18B
330
1F
100
AcDbEntity
  8
0
  6
Continuous
 62
     7
100
AcDbLine
 10
227.652794472242
 20
135.5581630545163
 30
0.0
 11
227.7118930642129
 21
135.7038851150531
 31
0.0
  0
LINE
  5
18C
330
1F
100
AcDbEntity
  8
0
  6
Continuous
 62
     7
100
AcDbLine
 10
226.0831847580274
 20
136.162377757697
 30
0.0
 11
226.8144983412627
 21
135.5266565586057
 31
0.0
  0
LINE
  5
18D
330
1F
100
AcDbEntity
  8
0
  6
Continuous
 62
     7
100
AcDbLine
 10
229.1713173369082
 20
135.4790202585686
 30
0.0
 11
227.7141329257144
 21
134.6034555312215
 31
0.0
  0
LINE
  5
18E
330
1F
100
AcDbEntity
  8
0
  6
Continuous
 62
     7
100
AcDbLine
 10
229.6309888187652
 20
134.7139984426919
 30
0.0
 11
229.1713173369082
 21
135.4790202585686
 31
0.0
  0
LINE
  5
18F
330
1F
100
AcDbEntity
  8
0
  6
Continuous
 62
     7
100
AcDbLine
 10
229.717841780907
 20
134.5281917542567
 30
0.0
 11
229.6309888187652
 21
134.7139984426919
 31
0.0
  0
LINE
  5
190
330
1F
100
AcDbEntity
  8
0
  6
Continuous
 62
     7
100
AcDbLine
 10
229.7419981909484
 20
134.3642114799737
 30
0.0
 11
229.717841780907
 21
134.5281917542567
 31
0.0
  0
LINE
  5
191
330
1F
100
AcDbEntity
  8
0
  6
Continuous
 62
     7
100
AcDbLine
 10
229.7216728540295
 20
134.2330021789347
 30
0.0
 11
229.7419981909484
 21
134.3642114799737
 31
0.0
  0
LINE
  5
192
330
1F
100
AcDbEntity
  8
0
  6
Continuous
 62
     7
100
AcDbLine
 10
229.6649179068308
 20
134.079903759712
 30
0.0
 11
229.7216728540295
 21
134.2330021789347
 31
0.0
  0
LINE
  5
193
330
1F
100
AcDbEntity
  8
0
  6
Continuous
 62
     7
100
AcDbLine
 10
226.9486070449935
 20
135.7197994282219
 30
0.0
 11
226.4482345933056
 21
136.1547665644428
 31
0.0
  0
LINE
  5
194
330
1F
100
AcDbEntity
  8
0
  6
Continuous
 62
     7
100
AcDbLine
 10
229.1435628674657
 20
130.465411081867
 30
0.0
 11
229.1648128674659
 21
130.2869110818669
 31
0.0
  0
LINE
  5
195
330
1F
100
AcDbEntity
  8
0
  6
Continuous
 62
     7
100
AcDbLine
 10
229.1435628674659
 20
131.2049110818671
 30
0.0
 11
229.1435628674657
 21
130.465411081867
 31
0.0
  0
LINE
  5
196
330
1F
100
AcDbEntity
  8
0
  6
Continuous
 62
     7
100
AcDbLine
 10
228.5284081221474
 20
133.2482740288112
 30
0.0
 11
228.634726150536
 21
133.4014038000497
 31
0.0
  0
LINE
  5
197
330
1F
100
AcDbEntity
  8
0
  6
Continuous
 62
     7
100
AcDbLine
 10
228.634726150536
 20
133.4014038000497
 30
0.0
 11
228.7490963156052
 21
133.4998734798605
 31
0.0
  0
LINE
  5
198
330
1F
100
AcDbEntity
  8
0
  6
Continuous
 62
     7
100
AcDbLine
 10
227.9940517260407
 20
136.1062084328654
 30
0.0
 11
228.0498167435049
 21
136.1703587471843
 31
0.0
  0
LINE
  5
199
330
1F
100
AcDbEntity
  8
0
  6
Continuous
 62
     7
100
AcDbLine
 10
227.9051003599149
 20
136.042750045206
 30
0.0
 11
227.9940517260407
 21
136.1062084328654
 31
0.0
  0
LINE
  5
19A
330
1F
100
AcDbEntity
  8
0
  6
Continuous
 62
     7
100
AcDbLine
 10
227.7711410525902
 20
136.6660165644263
 30
0.0
 11
227.8341801754069
 21
136.5830609648895
 31
0.0
  0
LINE
  5
19B
330
1F
100
AcDbEntity
  8
0
  6
Continuous
 62
     7
100
AcDbLine
 10
227.8341801754069
 20
136.5830609648895
 30
0.0
 11
227.8640329495617
 21
136.5007972920123
 31
0.0
  0
LINE
  5
19C
330
1F
100
AcDbEntity
  8
0
  6
Continuous
 62
     7
100
AcDbLine
 10
227.6780997592126
 20
136.0148264480037
 30
0.0
 11
227.7444724565359
 21
136.0134425946846
 31
0.0
  0
LINE
  5
19D
330
1F
100
AcDbEntity
  8
0
  6
Continuous
 62
     7
100
AcDbLine
 10
227.7444724565359
 20
136.0134425946846
 30
0.0
 11
227.9051003599149
 21
136.042750045206
 31
0.0
  0
LINE
  5
19E
330
1F
100
AcDbEntity
  8
0
  6
Continuous
 62
     7
100
AcDbLine
 10
227.7118930642129
 20
135.7038851150531
 30
0.0
 11
227.7185602132266
 21
135.8670286074885
 31
0.0
  0
LINE
  5
19F
330
1F
100
AcDbEntity
  8
0
  6
Continuous
 62
     7
100
AcDbLine
 10
227.9297986905465
 20
136.8096628449843
 30
0.0
 11
227.1984851073106
 21
137.4453840440762
 31
0.0
  0
LINE
  5
1A0
330
1F
100
AcDbEntity
  8
0
  6
Continuous
 62
     7
100
AcDbLine
 10
228.0120829076588
 20
136.7099777402082
 30
0.0
 11
227.9297986905465
 21
136.8096628449843
 31
0.0
  0
LINE
  5
1A1
330
1F
100
AcDbEntity
  8
0
  6
Continuous
 62
     7
100
AcDbLine
 10
228.0857297103347
 20
136.5614879730336
 30
0.0
 11
228.0120829076588
 21
136.7099777402082
 31
0.0
  0
LINE
  5
1A2
330
1F
100
AcDbEntity
  8
0
  6
Continuous
 62
     7
100
AcDbLine
 10
228.7490963156052
 20
133.4998734798605
 30
0.0
 11
228.8583851464449
 21
133.5655408344116
 31
0.0
  0
LINE
  5
1A3
330
1F
100
AcDbEntity
  8
0
  6
Continuous
 62
     7
100
AcDbLine
 10
228.4589096944745
 20
133.6527524349734
 30
0.0
 11
228.3576730003146
 21
133.532424988994
 31
0.0
  0
LINE
  5
1A4
330
1F
100
AcDbEntity
  8
0
  6
Continuous
 62
     7
100
AcDbLine
 10
228.3576730003146
 20
133.532424988994
 30
0.0
 11
228.5284081221474
 21
133.2482740288112
 31
0.0
  0
LINE
  5
1A5
330
1F
100
AcDbEntity
  8
0
  6
Continuous
 62
     7
100
AcDbLine
 10
227.2707686009023
 20
137.1009837006471
 30
0.0
 11
227.7711410525902
 21
136.6660165644263
 31
0.0
  0
LINE
  5
1A6
330
1F
100
AcDbEntity
  8
0
  6
Continuous
 62
     7
100
AcDbLine
 10
225.609639689687
 20
137.3338653666039
 30
0.0
 11
225.6843670180103
 21
137.5099119198265
 31
0.0
  0
LINE
  5
1A7
330
1F
100
AcDbEntity
  8
0
  6
Continuous
 62
     7
100
AcDbLine
 10
226.8385897155549
 20
136.6038187646754
 30
0.0
 11
227.3389621672428
 21
136.1688516284546
 31
0.0
  0
LINE
  5
1A8
330
1F
100
AcDbEntity
  8
0
  6
Continuous
 62
     7
100
AcDbLine
 10
226.9640610048493
 20
136.7481569718929
 30
0.0
 11
227.2707686009023
 21
137.1009837006471
 31
0.0
  0
LINE
  5
1A9
330
1F
100
AcDbEntity
  8
0
  6
Continuous
 62
     7
100
AcDbLine
 10
226.4482345933056
 20
136.1547665644428
 30
0.0
 11
226.8385897155549
 21
136.6038187646754
 31
0.0
  0
LINE
  5
1AA
330
1F
100
AcDbEntity
  8
0
  6
Continuous
 62
     7
100
AcDbLine
 10
227.7185602132266
 20
135.8670286074885
 30
0.0
 11
227.6780997592126
 21
136.0148264480037
 31
0.0
  0
LINE
  5
1AB
330
1F
100
AcDbEntity
  8
0
  6
Continuous
 62
     7
100
AcDbLine
 10
227.1984851073106
 20
137.4453840440762
 30
0.0
 11
226.0831847580274
 21
136.162377757697
 31
0.0
  0
LINE
  5
1AC
330
1F
100
AcDbEntity
  8
0
  6
Continuous
 62
     7
100
AcDbLine
 10
227.4644334565373
 20
136.3131898356721
 30
0.0
 11
226.9640610048493
 21
136.7481569718929
 31
0.0
  0
LINE
  5
1AD
330
1F
100
AcDbEntity
  8
0
  6
Continuous
 62
     7
100
AcDbLine
 10
230.6098128674657
 20
130.9244110818671
 30
0.0
 11
230.6098128674657
 21
130.4654110818671
 31
0.0
  0
LINE
  5
1AE
330
1F
100
AcDbEntity
  8
0
  6
Continuous
 62
     7
100
AcDbLine
 10
230.6098128674657
 20
130.4654110818671
 30
0.0
 11
230.5885628674658
 21
130.2869110818671
 31
0.0
  0
LINE
  5
1AF
330
1F
100
AcDbEntity
  8
0
  6
Continuous
 62
     7
100
AcDbLine
 10
230.8435628674657
 20
130.4654110818671
 30
0.0
 11
230.8435628674658
 21
131.2049110818671
 31
0.0
  0
LINE
  5
1B0
330
1F
100
AcDbEntity
  8
0
  6
Continuous
 62
     7
100
AcDbLine
 10
230.8223128674658
 20
130.2869110818672
 30
0.0
 11
230.8435628674657
 21
130.4654110818671
 31
0.0
  0
LINE
  5
1B1
330
1F
100
AcDbEntity
  8
0
  6
Continuous
 62
     7
100
AcDbLine
 10
230.7798128674656
 20
130.1339110818671
 30
0.0
 11
230.8223128674658
 21
130.2869110818672
 31
0.0
  0
LINE
  5
1B2
330
1F
100
AcDbEntity
  8
0
  6
Continuous
 62
     7
100
AcDbLine
 10
230.7373128674657
 20
130.0064110818671
 30
0.0
 11
230.7798128674656
 21
130.1339110818671
 31
0.0
  0
LINE
  5
1B3
330
1F
100
AcDbEntity
  8
0
  6
Continuous
 62
     7
100
AcDbLine
 10
230.6523128674655
 20
129.8789110818669
 30
0.0
 11
230.7373128674657
 21
130.0064110818671
 31
0.0
  0
LINE
  5
1B4
330
1F
100
AcDbEntity
  8
0
  6
Continuous
 62
     7
100
AcDbLine
 10
230.5460628674668
 20
129.7769110818677
 30
0.0
 11
230.6523128674655
 21
129.8789110818669
 31
0.0
  0
LINE
  5
1B5
330
1F
100
AcDbEntity
  8
0
  6
Continuous
 62
     7
100
AcDbLine
 10
230.5885628674658
 20
130.2869110818671
 30
0.0
 11
230.5460628674658
 21
130.1594110818672
 31
0.0
  0
LINE
  5
1B6
330
1F
100
AcDbEntity
  8
0
  6
Continuous
 62
     7
100
AcDbLine
 10
230.5401930565961
 20
132.5436739366708
 30
0.0
 11
230.4628767782894
 21
132.8133078423814
 31
0.0
  0
LINE
  5
1B7
330
1F
100
AcDbEntity
  8
0
  6
Continuous
 62
     7
100
AcDbLine
 10
230.4628767782894
 20
132.8133078423814
 30
0.0
 11
228.8287318951942
 21
132.3447243374926
 31
0.0
  0
LINE
  5
1B8
330
1F
100
AcDbEntity
  8
0
  6
Continuous
 62
     7
100
AcDbLine
 10
228.8287318951942
 20
132.3447243374926
 30
0.0
 11
228.9060481735008
 21
132.0750904317818
 31
0.0
  0
LINE
  5
1B9
330
1F
100
AcDbEntity
  8
0
  6
Continuous
 62
     7
100
AcDbLine
 10
230.8435628674658
 20
131.2049110818671
 30
0.0
 11
229.1435628674659
 21
131.2049110818671
 31
0.0
  0
LINE
  5
1BA
330
1F
100
AcDbEntity
  8
0
  6
Continuous
 62
     7
100
AcDbLine
 10
229.499264119228
 20
134.3968570451547
 30
0.0
 11
229.4840201165389
 21
134.2984500693754
 31
0.0
  0
LINE
  5
1BB
330
1F
100
AcDbEntity
  8
0
  6
Continuous
 62
     7
100
AcDbLine
 10
229.4094403546355
 20
134.6701261502771
 30
0.0
 11
229.4700263749569
 21
134.5280349941779
 31
0.0
  0
LINE
  5
1BC
330
1F
100
AcDbEntity
  8
0
  6
Continuous
 62
     7
100
AcDbLine
 10
229.4840201165389
 20
134.2984500693754
 30
0.0
 11
229.4192130326596
 21
134.2000117415805
 31
0.0
  0
LINE
  5
1BD
330
1F
100
AcDbEntity
  8
0
  6
Continuous
 62
     7
100
AcDbLine
 10
229.4700263749569
 20
134.5280349941779
 30
0.0
 11
229.499264119228
 21
134.3968570451547
 31
0.0
  0
LINE
  5
1BE
330
1F
100
AcDbEntity
  8
0
  6
Continuous
 62
     7
100
AcDbLine
 10
229.1925832343001
 20
134.123337123906
 30
0.0
 11
229.09853840615
 21
134.1560767451341
 31
0.0
  0
LINE
  5
1BF
330
1F
100
AcDbEntity
  8
0
  6
Continuous
 62
     7
100
AcDbLine
 10
229.09853840615
 20
134.1560767451341
 30
0.0
 11
228.996441441319
 21
134.24347645779
 31
0.0
  0
LINE
  5
1C0
330
1F
100
AcDbEntity
  8
0
  6
Continuous
 62
     7
100
AcDbLine
 10
229.1336374655213
 20
135.1291392398032
 30
0.0
 11
229.4094403546355
 21
134.6701261502771
 31
0.0
  0
LINE
  5
1C1
330
1F
100
AcDbEntity
  8
0
  6
Continuous
 62
     7
100
AcDbLine
 10
229.0184873195815
 20
133.95923144156
 30
0.0
 11
229.1387990895524
 21
133.8827762879959
 31
0.0
  0
LINE
  5
1C2
330
1F
100
AcDbEntity
  8
0
  6
Continuous
 62
     7
100
AcDbLine
 10
229.3099242018203
 20
134.1343443870295
 30
0.0
 11
229.1925832343001
 21
134.123337123906
 31
0.0
  0
LINE
  5
1C3
330
1F
100
AcDbEntity
  8
0
  6
Continuous
 62
     7
100
AcDbLine
 10
229.4192130326596
 20
134.2000117415805
 30
0.0
 11
229.3099242018203
 21
134.1343443870295
 31
0.0
  0
LINE
  5
1C4
330
1F
100
AcDbEntity
  8
0
  6
Continuous
 62
     7
100
AcDbLine
 10
229.3006218040333
 20
133.8610125778756
 30
0.0
 11
229.4412589109224
 21
133.9157667253504
 31
0.0
  0
LINE
  5
1C5
330
1F
100
AcDbEntity
  8
0
  6
Continuous
 62
     7
100
AcDbLine
 10
229.1387990895524
 20
133.8827762879959
 30
0.0
 11
229.3006218040333
 21
133.8610125778756
 31
0.0
  0
LINE
  5
1C6
330
1F
100
AcDbEntity
  8
0
  6
Continuous
 62
     7
100
AcDbLine
 10
229.4412589109224
 20
133.9157667253504
 30
0.0
 11
229.5505477417617
 21
133.9814340799015
 31
0.0
  0
LINE
  5
1C7
330
1F
100
AcDbEntity
  8
0
  6
Continuous
 62
     7
100
AcDbLine
 10
228.5914946646828
 20
133.7621666738755
 30
0.0
 11
228.4589096944745
 21
133.6527524349734
 31
0.0
  0
LINE
  5
1C8
330
1F
100
AcDbEntity
  8
0
  6
Continuous
 62
     7
100
AcDbLine
 10
228.8583851464449
 20
133.5655408344116
 30
0.0
 11
228.9727553115141
 21
133.6640105142224
 31
0.0
  0
LINE
  5
1C9
330
1F
100
AcDbEntity
  8
0
  6
Continuous
 62
     7
100
AcDbLine
 10
228.691010817498
 20
134.297948437123
 30
0.0
 11
228.7515968378194
 21
134.1558572810238
 31
0.0
  0
LINE
  5
1CA
330
1F
100
AcDbEntity
  8
0
  6
Continuous
 62
     7
100
AcDbLine
 10
228.996441441319
 20
134.24347645779
 30
0.0
 11
228.8994258107177
 21
134.3636784957057
 31
0.0
  0
LINE
  5
1CB
330
1F
100
AcDbEntity
  8
0
  6
Continuous
 62
     7
100
AcDbLine
 10
229.0295102587128
 20
133.8171089334446
 30
0.0
 11
229.0184873195815
 21
133.95923144156
 31
0.0
  0
LINE
  5
1CC
330
1F
100
AcDbEntity
  8
0
  6
Continuous
 62
     7
100
AcDbLine
 10
227.7141329257144
 20
134.6034555312215
 30
0.0
 11
227.8586011057266
 21
134.3630201033743
 31
0.0
  0
LINE
  5
1CD
330
1F
100
AcDbEntity
  8
0
  6
Continuous
 62
     7
100
AcDbLine
 10
228.9727553115141
 20
133.6640105142224
 30
0.0
 11
229.0295102587128
 21
133.8171089334446
 31
0.0
  0
LINE
  5
1CE
330
1F
100
AcDbEntity
  8
0
  6
Continuous
 62
     7
100
AcDbLine
 10
228.4414748702041
 20
134.7132459943131
 30
0.0
 11
228.691010817498
 21
134.297948437123
 31
0.0
  0
LINE
  5
1CF
330
1F
100
AcDbEntity
  8
0
  6
Continuous
 62
     7
100
AcDbLine
 10
228.7515968378194
 20
134.1558572810238
 30
0.0
 11
228.7808345820906
 21
134.0246793320003
 31
0.0
  0
LINE
  5
1D0
330
1F
100
AcDbEntity
  8
0
  6
Continuous
 62
     7
100
AcDbLine
 10
228.7808345820906
 20
134.0246793320003
 30
0.0
 11
228.7655905794015
 21
133.9262723562211
 31
0.0
  0
LINE
  5
1D1
330
1F
100
AcDbEntity
  8
0
  6
Continuous
 62
     7
100
AcDbLine
 10
228.7655905794015
 20
133.9262723562211
 30
0.0
 11
228.7007834955222
 21
133.8278340284264
 31
0.0
  0
LINE
  5
1D2
330
1F
100
AcDbEntity
  8
0
  6
Continuous
 62
     7
100
AcDbLine
 10
228.7007834955222
 20
133.8278340284264
 30
0.0
 11
228.5914946646828
 21
133.7621666738755
 31
0.0
  0
LINE
  5
1D3
330
1F
100
AcDbEntity
  8
0
  6
Continuous
 62
     7
100
AcDbLine
 10
228.1002779210397
 20
136.2672761453223
 30
0.0
 11
228.1069450700531
 21
136.4304196377576
 31
0.0
  0
LINE
  5
1D4
330
1F
100
AcDbEntity
  8
0
  6
Continuous
 62
     7
100
AcDbLine
 10
227.8640329495617
 20
136.5007972920123
 30
0.0
 11
227.8606993750551
 21
136.4192255457946
 31
0.0
  0
LINE
  5
1D5
330
1F
100
AcDbEntity
  8
0
  6
Continuous
 62
     7
100
AcDbLine
 10
227.8606993750551
 20
136.4192255457946
 30
0.0
 11
227.8381207062525
 21
136.3543833048161
 31
0.0
  0
LINE
  5
1D6
330
1F
100
AcDbEntity
  8
0
  6
Continuous
 62
     7
100
AcDbLine
 10
228.1069450700531
 20
136.4304196377576
 30
0.0
 11
228.0857297103347
 21
136.5614879730336
 31
0.0
  0
LINE
  5
1D7
330
1F
100
AcDbEntity
  8
0
  6
Continuous
 62
     7
100
AcDbLine
 10
227.8381207062525
 20
136.3543833048161
 30
0.0
 11
227.7823556887886
 21
136.2902329904974
 31
0.0
  0
LINE
  5
1D8
330
1F
100
AcDbEntity
  8
0
  6
Continuous
 62
     7
100
AcDbLine
 10
227.421246384355
 20
136.0691665236786
 30
0.0
 11
227.4564029984395
 21
135.9541357669823
 31
0.0
  0
LINE
  5
1D9
330
1F
100
AcDbEntity
  8
0
  6
Continuous
 62
     7
100
AcDbLine
 10
227.4583732638624
 20
135.8397969369456
 30
0.0
 11
227.4218533406938
 21
135.7589171173874
 31
0.0
  0
LINE
  5
1DA
330
1F
100
AcDbEntity
  8
0
  6
Continuous
 62
     7
100
AcDbLine
 10
227.4218533406938
 20
135.7589171173874
 30
0.0
 11
227.3660883232298
 21
135.6947668030686
 31
0.0
  0
LINE
  5
1DB
330
1F
100
AcDbEntity
  8
0
  6
Continuous
 62
     7
100
AcDbLine
 10
227.3660883232298
 20
135.6947668030686
 30
0.0
 11
227.2910782114701
 21
135.6473459939889
 31
0.0
  0
LINE
  5
1DC
330
1F
100
AcDbEntity
  8
0
  6
Continuous
 62
     7
100
AcDbLine
 10
227.2910782114701
 20
135.6473459939889
 30
0.0
 11
227.177577911119
 21
135.6333841953877
 31
0.0
  0
LINE
  5
1DD
330
1F
100
AcDbEntity
  8
0
  6
Continuous
 62
     7
100
AcDbLine
 10
227.177577911119
 20
135.6333841953877
 30
0.0
 11
227.0587737708379
 21
135.6521894806054
 31
0.0
  0
LINE
  5
1DE
330
1F
100
AcDbEntity
  8
0
  6
Continuous
 62
     7
100
AcDbLine
 10
227.4564029984395
 20
135.9541357669823
 30
0.0
 11
227.4583732638624
 21
135.8397969369456
 31
0.0
  0
LINE
  5
1DF
330
1F
100
AcDbEntity
  8
0
  6
Continuous
 62
     7
100
AcDbLine
 10
227.5553550880861
 20
136.2623093932948
 30
0.0
 11
227.4644334565373
 21
136.3131898356721
 31
0.0
  0
LINE
  5
1E0
330
1F
100
AcDbEntity
  8
0
  6
Continuous
 62
     7
100
AcDbLine
 10
227.7212868313945
 20
136.2588497599973
 30
0.0
 11
227.6409728797051
 21
136.2441960347366
 31
0.0
  0
LINE
  5
1E1
330
1F
100
AcDbEntity
  8
0
  6
Continuous
 62
     7
100
AcDbLine
 10
228.0498167435049
 20
136.1703587471843
 30
0.0
 11
228.1002779210397
 21
136.2672761453223
 31
0.0
  0
LINE
  5
1E2
330
1F
100
AcDbEntity
  8
0
  6
Continuous
 62
     7
100
AcDbLine
 10
227.6409728797051
 20
136.2441960347366
 30
0.0
 11
227.5553550880861
 21
136.2623093932948
 31
0.0
  0
LINE
  5
1E3
330
1F
100
AcDbEntity
  8
0
  6
Continuous
 62
     7
100
AcDbLine
 10
227.7823556887886
 20
136.2902329904974
 30
0.0
 11
227.7212868313945
 21
136.2588497599973
 31
0.0
  0
LINE
  5
1E4
330
1F
100
AcDbEntity
  8
0
  6
Continuous
 62
     7
100
AcDbLine
 10
227.5830882004119
 20
135.4779751616177
 30
0.0
 11
227.652794472242
 21
135.5581630545163
 31
0.0
  0
LINE
  5
1E5
330
1F
100
AcDbEntity
  8
0
  6
Continuous
 62
     7
100
AcDbLine
 10
227.447009231259
 20
135.3991711220383
 30
0.0
 11
227.5830882004119
 21
135.4779751616177
 31
0.0
  0
LINE
  5
1E6
330
1F
100
AcDbEntity
  8
0
  6
Continuous
 62
     7
100
AcDbLine
 10
227.3195676765416
 20
135.3691717448574
 30
0.0
 11
227.447009231259
 21
135.3991711220383
 31
0.0
  0
LINE
  5
1E7
330
1F
100
AcDbEntity
  8
0
  6
Continuous
 62
     7
100
AcDbLine
 10
227.1536359332322
 20
135.3726313781548
 30
0.0
 11
227.3195676765416
 21
135.3691717448574
 31
0.0
  0
LINE
  5
1E8
330
1F
100
AcDbEntity
  8
0
  6
Continuous
 62
     7
100
AcDbLine
 10
226.9963416043599
 20
135.4248956738511
 30
0.0
 11
227.1536359332322
 21
135.3726313781548
 31
0.0
  0
LINE
  5
1E9
330
1F
100
AcDbEntity
  8
0
  6
Continuous
 62
     7
100
AcDbLine
 10
226.8144983412627
 20
135.5266565586057
 30
0.0
 11
226.9963416043599
 21
135.4248956738511
 31
0.0
  0
LINE
  5
1EA
330
1F
100
AcDbEntity
  8
0
  6
Continuous
 62
     7
100
AcDbLine
 10
227.0587737708379
 20
135.6521894806054
 30
0.0
 11
226.9486070449935
 21
135.7197994282219
 31
0.0
  0
LINE
  5
1EB
330
1F
100
AcDbEntity
  8
0
  6
Continuous
 62
     7
100
AcDbLine
 10
227.3389621672428
 20
136.1688516284546
 30
0.0
 11
227.421246384355
 21
136.0691665236786
 31
0.0
  0
LINE
  5
1EC
330
1F
100
AcDbEntity
  8
0
  6
Continuous
 62
     7
100
AcDbLine
 10
228.8994258107177
 20
134.3636784957057
 30
0.0
 11
228.6236229216035
 21
134.8226915852316
 31
0.0
  0
LINE
  5
1ED
330
1F
100
AcDbEntity
  8
0
  6
Continuous
 62
     7
100
AcDbLine
 10
227.8586011057266
 20
134.3630201033743
 30
0.0
 11
228.4414748702041
 21
134.7132459943131
 31
0.0
  0
LINE
  5
1EE
330
1F
100
AcDbEntity
  8
0
  6
Continuous
 62
     7
100
AcDbLine
 10
228.6236229216035
 20
134.8226915852316
 30
0.0
 11
229.1336374655213
 21
135.1291392398032
 31
0.0
  0
LINE
  5
1EF
330
1F
100
AcDbEntity
  8
0
  6
Continuous
 62
     7
100
AcDbLine
 10
228.9060481735008
 20
132.0750904317818
 30
0.0
 11
230.5401930565961
 21
132.5436739366708
 31
0.0
  0
LINE
  5
1F0
330
1F
100
AcDbEntity
  8
1
  6
DOT_CENTER
 62
     7
100
AcDbLine
 10
219.8273350575333
 20
117.1297438241738
 30
0.0
 11
214.3273350575333
 21
117.1297438241738
 31
0.0
  0
LINE
  5
1F1
330
1F
100
AcDbEntity
  8
1
  6
DOT_CENTER
 62
     7
100
AcDbLine
 10
217.0773350575333
 20
119.8797438241737
 30
0.0
 11
217.0773350575333
 21
114.3797438241738
 31
0.0
  0
LINE
  5
1F2
330
1F
100
AcDbEntity
  8
1
  6
Continuous
 62
     7
100
AcDbLine
 10
87.51076595083532
 20
81.32974382417427
 30
0.0
 11
98.84390320404111
 21
81.32974382417427
 31
0.0
  0
LINE
  5
1F3
330
1F
100
AcDbEntity
  8
0
  6
Continuous
 62
     7
100
AcDbLine
 10
206.5684099247688
 20
66.32974382417424
 30
0.0
 11
205.0773347032661
 21
66.32974382417424
 31
0.0
  0
LINE
  5
1F4
330
1F
100
AcDbEntity
  8
1
  6
DASHED
 62
     7
100
AcDbLine
 10
85.17733457743827
 20
66.32974382417427
 30
0.0
 11
85.17733457743827
 21
66.42974382417427
 31
0.0
  0
LINE
  5
1F5
330
1F
100
AcDbEntity
  8
0
  6
Continuous
 62
     7
100
AcDbLine
 10
85.17733457743827
 20
66.32974382417427
 30
0.0
 11
82.17733457743827
 21
66.32974382417427
 31
0.0
  0
LINE
  5
1F6
330
1F
100
AcDbEntity
  8
1
  6
DASHED
 62
     7
100
AcDbLine
 10
101.1773345774383
 20
66.32974382417427
 30
0.0
 11
101.1773345774383
 21
66.42974382417427
 31
0.0
  0
LINE
  5
1F7
330
1F
100
AcDbEntity
  8
0
  6
Continuous
 62
     7
100
AcDbLine
 10
101.1773345774383
 20
66.32974382417427
 30
0.0
 11
85.17733457743827
 21
66.32974382417427
 31
0.0
  0
LINE
  5
1F8
330
1F
100
AcDbEntity
  8
0
  6
Continuous
 62
     7
100
AcDbLine
 10
93.2765849486384
 20
131.9811083693535
 30
0.0
 11
98.32695952966839
 21
134.8679260967602
 31
0.0
  0
LINE
  5
1F9
330
1F
100
AcDbEntity
  8
0
  6
Continuous
 62
     7
100
AcDbLine
 10
85.67733411069798
 20
132.3297438241707
 30
0.0
 11
69.28925419839618
 21
132.3297438241707
 31
0.0
  0
LINE
  5
1FA
330
1F
100
AcDbEntity
  8
0
  6
Continuous
 62
     7
100
AcDbLine
 10
85.67733411069798
 20
131.5201134968911
 30
0.0
 11
68.34337683349844
 21
131.5201134968911
 31
0.0
  0
LINE
  5
1FB
330
1F
100
AcDbEntity
  8
0
  6
Continuous
 62
     7
100
AcDbLine
 10
70.55346467233494
 20
134.1362905549732
 30
0.0
 11
70.38540452270729
 21
134.1604827445329
 31
0.0
  0
LINE
  5
1FC
330
1F
100
AcDbEntity
  8
0
  6
Continuous
 62
     7
100
AcDbLine
 10
70.55883993933975
 20
137.0279162500724
 30
0.0
 11
70.72941364573046
 21
137.0452810678392
 31
0.0
  0
LINE
  5
1FD
330
1F
100
AcDbEntity
  8
0
  6
Continuous
 62
     7
100
AcDbLine
 10
85.67733411069764
 20
137.9928627847956
 30
0.0
 11
85.67733411069764
 21
137.0452810678392
 31
0.0
  0
LINE
  5
1FE
330
1F
100
AcDbEntity
  8
0
  6
Continuous
 62
     7
100
AcDbLine
 10
85.67733411069764
 20
137.0452810678392
 30
0.0
 11
85.67733411069764
 21
137.0279162500724
 31
0.0
  0
LINE
  5
1FF
330
1F
100
AcDbEntity
  8
0
  6
Continuous
 62
     7
100
AcDbLine
 10
85.67733411069764
 20
136.0740403010882
 30
0.0
 11
85.67733411069764
 21
135.098044581297
 31
0.0
  0
LINE
  5
200
330
1F
100
AcDbEntity
  8
0
  6
Continuous
 62
     7
100
AcDbLine
 10
70.55346467233494
 20
134.1362905549732
 30
0.0
 11
85.67733411069764
 21
134.1362905549732
 31
0.0
  0
LINE
  5
201
330
1F
100
AcDbEntity
  8
0
  6
Continuous
 62
     7
100
AcDbLine
 10
85.67733411069764
 20
135.098044581297
 30
0.0
 11
85.67733411069764
 21
134.1604827445329
 31
0.0
  0
LINE
  5
202
330
1F
100
AcDbEntity
  8
0
  6
Continuous
 62
     7
100
AcDbLine
 10
70.38540452270729
 20
134.1604827445329
 30
0.0
 11
85.67733411069764
 21
134.1604827445329
 31
0.0
  0
LINE
  5
203
330
1F
100
AcDbEntity
  8
0
  6
Continuous
 62
     7
100
AcDbLine
 10
85.67733411069764
 20
134.1604827445329
 30
0.0
 11
85.67733411069764
 21
134.1362905549732
 31
0.0
  0
LINE
  5
204
330
1F
100
AcDbEntity
  8
0
  6
Continuous
 62
     7
100
AcDbLine
 10
70.03076100686678
 20
133.2074976702594
 30
0.0
 11
85.67733411069787
 21
133.2074976702594
 31
0.0
  0
LINE
  5
205
330
1F
100
AcDbEntity
  8
0
  6
Continuous
 62
     7
100
AcDbLine
 10
85.67733411069764
 20
134.1362905549732
 30
0.0
 11
85.67733411069787
 21
133.2074976702594
 31
0.0
  0
LINE
  5
206
330
1F
100
AcDbEntity
  8
0
  6
Continuous
 62
     7
100
AcDbLine
 10
69.28925419839618
 20
132.3297438241707
 30
0.0
 11
69.13925419839609
 21
132.3797438241707
 31
0.0
  0
LINE
  5
207
330
1F
100
AcDbEntity
  8
0
  6
Continuous
 62
     7
100
AcDbLine
 10
68.20688936728266
 20
131.5816796444239
 30
0.0
 11
68.34337683349844
 21
131.5201134968911
 31
0.0
  0
LINE
  5
208
330
1F
100
AcDbEntity
  8
0
  6
Continuous
 62
     7
100
AcDbLine
 10
69.87016805245997
 20
133.2449583296009
 30
0.0
 11
70.03076100686678
 21
133.2074976702594
 31
0.0
  0
LINE
  5
209
330
1F
100
AcDbEntity
  8
0
  6
Continuous
 62
     7
100
AcDbLine
 10
85.67733411069787
 20
133.2074976702594
 30
0.0
 11
85.67733411069798
 21
132.3797438241707
 31
0.0
  0
LINE
  5
20A
330
1F
100
AcDbEntity
  8
0
  6
Continuous
 62
     7
100
AcDbLine
 10
85.67733411069798
 20
132.3297438241707
 30
0.0
 11
85.67733411069798
 21
132.3797438241707
 31
0.0
  0
LINE
  5
20B
330
1F
100
AcDbEntity
  8
0
  6
Continuous
 62
     7
100
AcDbLine
 10
85.67733411069798
 20
132.3797438241707
 30
0.0
 11
69.13925419839609
 21
132.3797438241707
 31
0.0
  0
LINE
  5
20C
330
1F
100
AcDbEntity
  8
0
  6
Continuous
 62
     7
100
AcDbLine
 10
85.67733411069798
 20
132.3297438241707
 30
0.0
 11
85.67733411066718
 21
131.8797438241714
 31
0.0
  0
LINE
  5
20D
330
1F
100
AcDbEntity
  8
0
  6
Continuous
 62
     7
100
AcDbLine
 10
85.67733411066718
 20
131.8797438241714
 30
0.0
 11
85.67733411069798
 21
131.5201134968911
 31
0.0
  0
LINE
  5
20E
330
1F
100
AcDbEntity
  8
0
  6
Continuous
 62
     7
100
AcDbLine
 10
85.97733411069794
 20
131.5797438241715
 30
0.0
 11
100.3773341106979
 21
131.5797438241715
 31
0.0
  0
LINE
  5
20F
330
1F
100
AcDbEntity
  8
0
  6
Continuous
 62
     7
100
AcDbLine
 10
91.37733411069769
 20
136.268545613474
 30
0.0
 11
91.37733411069769
 21
133.761251310867
 31
0.0
  0
LINE
  5
210
330
1F
100
AcDbEntity
  8
0
  6
Continuous
 62
     7
100
AcDbLine
 10
93.77733411069767
 20
135.9751306768872
 30
0.0
 11
93.77733411069738
 21
133.1879468099276
 31
0.0
  0
LINE
  5
211
330
1F
100
AcDbEntity
  8
0
  6
Continuous
 62
     7
100
AcDbLine
 10
93.8041290297594
 20
136.8215408380893
 30
0.0
 11
93.17733411069571
 21
135.735900192345
 31
0.0
  0
LINE
  5
212
330
1F
100
AcDbEntity
  8
0
  6
Continuous
 62
     7
100
AcDbLine
 10
94.17733411069764
 20
136.7215408384014
 30
0.0
 11
94.17733411069798
 21
133.1879468099321
 31
0.0
  0
LINE
  5
213
330
1F
100
AcDbEntity
  8
0
  6
Continuous
 62
     7
100
AcDbLine
 10
92.5773341106958
 20
135.9751306768863
 30
0.0
 11
92.57733411069796
 21
134.1024804964063
 31
0.0
  0
LINE
  5
214
330
1F
100
AcDbEntity
  8
0
  6
Continuous
 62
     7
100
AcDbLine
 10
92.17733411069764
 20
136.7215408384014
 30
0.0
 11
92.17733411069736
 21
134.1024804964063
 31
0.0
  0
LINE
  5
215
330
1F
100
AcDbEntity
  8
0
  6
Continuous
 62
     7
100
AcDbLine
 10
90.57733411069768
 20
135.8070071519341
 30
0.0
 11
90.5773341106974
 21
134.1024804964066
 31
0.0
  0
LINE
  5
216
330
1F
100
AcDbEntity
  8
0
  6
Continuous
 62
     7
100
AcDbLine
 10
90.97733411069771
 20
135.8070071519341
 30
0.0
 11
90.977334110698
 21
134.1024804964063
 31
0.0
  0
LINE
  5
217
330
1F
100
AcDbEntity
  8
0
  6
Continuous
 62
     7
100
AcDbLine
 10
91.77733411069767
 20
136.2685456134725
 30
0.0
 11
91.77733411069767
 21
133.7612513108673
 31
0.0
  0
LINE
  5
218
330
1F
100
AcDbEntity
  8
0
  6
Continuous
 62
     7
100
AcDbLine
 10
94.57733411069768
 20
136.2642570973892
 30
0.0
 11
94.57733411069768
 21
133.6452305509518
 31
0.0
  0
LINE
  5
219
330
1F
100
AcDbEntity
  8
0
  6
Continuous
 62
     7
100
AcDbLine
 10
98.07582447697149
 20
134.9547438241673
 30
0.0
 11
93.17733411069764
 21
132.1547438241708
 31
0.0
  0
LINE
  5
21A
330
1F
100
AcDbEntity
  8
0
  6
Continuous
 62
     7
100
AcDbLine
 10
94.97733411069771
 20
134.7547438241709
 30
0.0
 11
94.97733411069771
 21
133.9899191841037
 31
0.0
  0
LINE
  5
21B
330
1F
100
AcDbEntity
  8
0
  6
Continuous
 62
     7
100
AcDbLine
 10
94.97733411069771
 20
134.7547438241709
 30
0.0
 11
95.57733411069768
 21
134.7547438241709
 31
0.0
  0
LINE
  5
21C
330
1F
100
AcDbEntity
  8
0
  6
Continuous
 62
     7
100
AcDbLine
 10
94.87727860138767
 20
133.4719934337379
 30
0.0
 11
95.67727860139297
 21
133.9292433791962
 31
0.0
  0
LINE
  5
21D
330
1F
100
AcDbEntity
  8
0
  6
Continuous
 62
     7
100
AcDbLine
 10
95.47738961915275
 20
134.2757176131287
 30
0.0
 11
94.97733411069771
 21
133.9899191841037
 31
0.0
  0
LINE
  5
21E
330
1F
100
AcDbEntity
  8
0
  6
Continuous
 62
     7
100
AcDbLine
 10
93.07808494300576
 20
137.9283802336907
 30
0.0
 11
88.02776548399822
 21
135.0416584668201
 31
0.0
  0
LINE
  5
21F
330
1F
100
AcDbEntity
  8
0
  6
Continuous
 62
     7
100
AcDbLine
 10
88.27873437465638
 20
134.9547438241673
 30
0.0
 11
93.17733411069958
 21
137.7547438241674
 31
0.0
  0
LINE
  5
220
330
1F
100
AcDbEntity
  8
0
  6
Continuous
 62
     7
100
AcDbLine
 10
93.17733411069571
 20
135.735900192345
 30
0.0
 11
92.55053919145257
 21
136.8215408384001
 31
0.0
  0
LINE
  5
221
330
1F
100
AcDbEntity
  8
0
  6
Continuous
 62
     7
100
AcDbLine
 10
92.5773341106958
 20
135.9751306768863
 30
0.0
 11
93.09073157031929
 21
135.0859001923461
 31
0.0
  0
LINE
  5
222
330
1F
100
AcDbEntity
  8
0
  6
Continuous
 62
     7
100
AcDbLine
 10
88.02776548399629
 20
134.8678291815179
 30
0.0
 11
93.07808494300428
 21
131.9811074146474
 31
0.0
  0
LINE
  5
223
330
1F
100
AcDbEntity
  8
0
  6
Continuous
 62
     7
100
AcDbLine
 10
93.17733411069764
 20
132.1547438241708
 30
0.0
 11
88.27873437465638
 21
134.9547438241673
 31
0.0
  0
LINE
  5
224
330
1F
100
AcDbEntity
  8
0
  6
Continuous
 62
     7
100
AcDbLine
 10
93.0772786013747
 20
133.0182135510938
 30
0.0
 11
91.77733411069767
 21
133.7612513108673
 31
0.0
  0
LINE
  5
225
330
1F
100
AcDbEntity
  8
0
  6
Continuous
 62
     7
100
AcDbLine
 10
91.57744512930117
 20
133.414777076448
 30
0.0
 11
92.87738962000117
 21
132.6717393166616
 31
0.0
  0
LINE
  5
226
330
1F
100
AcDbEntity
  8
0
  6
Continuous
 62
     7
100
AcDbLine
 10
98.3269595296664
 20
135.0415615515782
 30
0.0
 11
93.27658494863647
 21
137.9283792789847
 31
0.0
  0
LINE
  5
227
330
1F
100
AcDbEntity
  8
0
  6
Continuous
 62
     7
100
AcDbLine
 10
93.17733411069958
 20
137.7547438241674
 30
0.0
 11
98.07582447697149
 21
134.9547438241673
 31
0.0
  0
LINE
  5
228
330
1F
100
AcDbEntity
  8
0
  6
Continuous
 62
     7
100
AcDbLine
 10
93.26393665107616
 20
135.0859001923464
 30
0.0
 11
93.77733411069767
 21
135.9751306768872
 31
0.0
  0
LINE
  5
229
330
1F
100
AcDbEntity
  8
0
  6
Continuous
 62
     7
100
AcDbLine
 10
94.97733411069567
 20
135.1547438241708
 30
0.0
 11
95.57733411069768
 21
135.1547438241708
 31
0.0
  0
LINE
  5
22A
330
1F
100
AcDbEntity
  8
0
  6
Continuous
 62
     7
100
AcDbLine
 10
94.97733411069567
 20
135.9195703066734
 30
0.0
 11
94.97733411069567
 21
135.1547438241708
 31
0.0
  0
LINE
  5
22B
330
1F
100
AcDbEntity
  8
0
  6
Continuous
 62
     7
100
AcDbLine
 10
94.97733411069567
 20
135.9195703066734
 30
0.0
 11
95.47738962085089
 21
135.6337362386766
 31
0.0
  0
LINE
  5
22C
330
1F
100
AcDbEntity
  8
0
  6
Continuous
 62
     7
100
AcDbLine
 10
95.6772786013878
 20
135.9802104735915
 30
0.0
 11
94.87727860139671
 21
136.4374942145985
 31
0.0
  0
LINE
  5
22D
330
1F
100
AcDbEntity
  8
0
  6
Continuous
 62
     7
100
AcDbLine
 10
100.6773341106976
 20
137.0279162500724
 30
0.0
 11
100.6773341106979
 21
136.0740403010882
 31
0.0
  0
LINE
  5
22E
330
1F
100
AcDbEntity
  8
0
  6
Continuous
 62
     7
100
AcDbLine
 10
100.6773341106976
 20
137.0279162500724
 30
0.0
 11
100.6773341106976
 21
137.0452810678392
 31
0.0
  0
LINE
  5
22F
330
1F
100
AcDbEntity
  8
0
  6
Continuous
 62
     7
100
AcDbLine
 10
100.6773341106976
 20
135.098044581297
 30
0.0
 11
100.6773341106976
 21
134.1604827445329
 31
0.0
  0
LINE
  5
230
330
1F
100
AcDbEntity
  8
0
  6
Continuous
 62
     7
100
AcDbLine
 10
100.6773341106976
 20
134.1362905549732
 30
0.0
 11
100.6773341106976
 21
134.1604827445329
 31
0.0
  0
LINE
  5
231
330
1F
100
AcDbEntity
  8
0
  6
Continuous
 62
     7
100
AcDbLine
 10
100.6773341106979
 20
133.2074976702594
 30
0.0
 11
100.677334110698
 21
132.3797438241707
 31
0.0
  0
LINE
  5
232
330
1F
100
AcDbEntity
  8
0
  6
Continuous
 62
     7
100
AcDbLine
 10
100.6773341106979
 20
132.3297438241707
 30
0.0
 11
100.677334110698
 21
132.3797438241707
 31
0.0
  0
LINE
  5
233
330
1F
100
AcDbEntity
  8
0
  6
Continuous
 62
     7
100
AcDbLine
 10
118.0112913878977
 20
131.5201134968911
 30
0.0
 11
118.1477788541135
 21
131.5816796444238
 31
0.0
  0
LINE
  5
234
330
1F
100
AcDbEntity
  8
0
  6
Continuous
 62
     7
100
AcDbLine
 10
118.0112913878977
 20
131.5201134968911
 30
0.0
 11
100.677334110698
 21
131.5201134968911
 31
0.0
  0
LINE
  5
235
330
1F
100
AcDbEntity
  8
0
  6
Continuous
 62
     7
100
AcDbLine
 10
100.677334110698
 20
131.8797438241715
 30
0.0
 11
100.677334110698
 21
131.5201134968911
 31
0.0
  0
LINE
  5
236
330
1F
100
AcDbEntity
  8
0
  6
Continuous
 62
     7
100
AcDbLine
 10
115.6215437687942
 20
136.070550351418
 30
0.0
 11
115.4484441998925
 21
136.0740403010882
 31
0.0
  0
LINE
  5
237
330
1F
100
AcDbEntity
  8
0
  6
Continuous
 62
     7
100
AcDbLine
 10
100.6773341106979
 20
136.0740403010882
 30
0.0
 11
115.4484441998925
 21
136.0740403010882
 31
0.0
  0
LINE
  5
238
330
1F
100
AcDbEntity
  8
0
  6
Continuous
 62
     7
100
AcDbLine
 10
100.6773341106979
 20
136.0740403010882
 30
0.0
 11
100.6773341106976
 21
135.098044581297
 31
0.0
  0
LINE
  5
239
330
1F
100
AcDbEntity
  8
0
  6
Continuous
 62
     7
100
AcDbLine
 10
117.2154140229999
 20
132.379743824171
 30
0.0
 11
117.0654140230001
 21
132.3297438241707
 31
0.0
  0
LINE
  5
23A
330
1F
100
AcDbEntity
  8
0
  6
Continuous
 62
     7
100
AcDbLine
 10
116.3239072145295
 20
133.2074976702593
 30
0.0
 11
116.4845001689362
 21
133.2449583296009
 31
0.0
  0
LINE
  5
23B
330
1F
100
AcDbEntity
  8
0
  6
Continuous
 62
     7
100
AcDbLine
 10
115.969263698689
 20
134.1604827445329
 30
0.0
 11
115.8012035490612
 21
134.1362905549729
 31
0.0
  0
LINE
  5
23C
330
1F
100
AcDbEntity
  8
0
  6
Continuous
 62
     7
100
AcDbLine
 10
100.6773341106976
 20
134.1362905549732
 30
0.0
 11
100.6773341106979
 21
133.2074976702594
 31
0.0
  0
LINE
  5
23D
330
1F
100
AcDbEntity
  8
0
  6
Continuous
 62
     7
100
AcDbLine
 10
100.677334110698
 20
132.3797438241707
 30
0.0
 11
117.2154140229999
 21
132.379743824171
 31
0.0
  0
LINE
  5
23E
330
1F
100
AcDbEntity
  8
0
  6
Continuous
 62
     7
100
AcDbLine
 10
100.6773341106979
 20
133.2074976702594
 30
0.0
 11
116.3239072145295
 21
133.2074976702593
 31
0.0
  0
LINE
  5
23F
330
1F
100
AcDbEntity
  8
0
  6
Continuous
 62
     7
100
AcDbLine
 10
100.6773341106979
 20
132.3297438241707
 30
0.0
 11
117.0654140230001
 21
132.3297438241707
 31
0.0
  0
LINE
  5
240
330
1F
100
AcDbEntity
  8
0
  6
Continuous
 62
     7
100
AcDbLine
 10
115.6252545756659
 20
137.0452810678392
 30
0.0
 11
115.7958282820564
 21
137.0279162500724
 31
0.0
  0
LINE
  5
241
330
1F
100
AcDbEntity
  8
0
  6
Continuous
 62
     7
100
AcDbLine
 10
100.6773341106976
 20
137.0279162500724
 30
0.0
 11
115.7958282820564
 21
137.0279162500724
 31
0.0
  0
LINE
  5
242
330
1F
100
AcDbEntity
  8
0
  6
Continuous
 62
     7
100
AcDbLine
 10
100.6773341106976
 20
137.0452810678392
 30
0.0
 11
115.6252545756659
 21
137.0452810678392
 31
0.0
  0
LINE
  5
243
330
1F
100
AcDbEntity
  8
0
  6
Continuous
 62
     7
100
AcDbLine
 10
115.5074768588772
 20
135.098044581297
 30
0.0
 11
115.6797331040789
 21
135.1084974276239
 31
0.0
  0
LINE
  5
244
330
1F
100
AcDbEntity
  8
0
  6
Continuous
 62
     7
100
AcDbLine
 10
100.6773341106976
 20
135.098044581297
 30
0.0
 11
115.5074768588772
 21
135.098044581297
 31
0.0
  0
LINE
  5
245
330
1F
100
AcDbEntity
  8
0
  6
Continuous
 62
     7
100
AcDbLine
 10
100.6773341106976
 20
134.1604827445329
 30
0.0
 11
115.969263698689
 21
134.1604827445329
 31
0.0
  0
LINE
  5
246
330
1F
100
AcDbEntity
  8
0
  6
Continuous
 62
     7
100
AcDbLine
 10
100.6773341106976
 20
134.1362905549732
 30
0.0
 11
115.8012035490612
 21
134.1362905549729
 31
0.0
  0
LINE
  5
247
330
1F
100
AcDbEntity
  8
0
  6
Continuous
 62
     7
100
AcDbLine
 10
100.6773341106979
 20
132.3297438241707
 30
0.0
 11
100.677334110698
 21
131.8797438241715
 31
0.0
  0
LINE
  5
248
330
1F
100
AcDbEntity
  8
0
  6
Continuous
 62
     7
100
AcDbLine
 10
116.1991943940607
 20
137.9619610853578
 30
0.0
 11
116.0344665733515
 21
137.9928627847953
 31
0.0
  0
LINE
  5
249
330
1F
100
AcDbEntity
  8
0
  6
Continuous
 62
     7
100
AcDbLine
 10
120.4388965766284
 20
130.1666248635463
 30
0.0
 11
120.5407039687194
 21
130.2475265629837
 31
0.0
  0
LINE
  5
24A
330
1F
100
AcDbEntity
  8
0
  6
Continuous
 62
     7
100
AcDbLine
 10
100.6773341106976
 20
137.9928627847956
 30
0.0
 11
100.6773341106976
 21
137.0452810678392
 31
0.0
  0
LINE
  5
24B
330
1F
100
AcDbEntity
  8
0
  6
Continuous
 62
     7
100
AcDbLine
 10
70.32020164804476
 20
137.9928627847953
 30
0.0
 11
70.15547382733536
 21
137.9619610853578
 31
0.0
  0
LINE
  5
24C
330
1F
100
AcDbEntity
  8
0
  6
Continuous
 62
     7
100
AcDbLine
 10
70.32020164804476
 20
137.9928627847953
 30
0.0
 11
85.67733411069764
 21
137.9928627847956
 31
0.0
  0
LINE
  5
24D
330
1F
100
AcDbEntity
  8
0
  6
Continuous
 62
     7
100
AcDbLine
 10
70.90622402150359
 20
136.0740403010882
 30
0.0
 11
70.73312445260206
 21
136.070550351418
 31
0.0
  0
LINE
  5
24E
330
1F
100
AcDbEntity
  8
0
  6
Continuous
 62
     7
100
AcDbLine
 10
70.55883993933975
 20
137.0279162500724
 30
0.0
 11
85.67733411069764
 21
137.0279162500724
 31
0.0
  0
LINE
  5
24F
330
1F
100
AcDbEntity
  8
0
  6
Continuous
 62
     7
100
AcDbLine
 10
70.72941364573046
 20
137.0452810678392
 30
0.0
 11
85.67733411069764
 21
137.0452810678392
 31
0.0
  0
LINE
  5
250
330
1F
100
AcDbEntity
  8
0
  6
Continuous
 62
     7
100
AcDbLine
 10
70.90622402150359
 20
136.0740403010882
 30
0.0
 11
85.67733411069764
 21
136.0740403010882
 31
0.0
  0
LINE
  5
251
330
1F
100
AcDbEntity
  8
0
  6
Continuous
 62
     7
100
AcDbLine
 10
85.67733411069764
 20
137.0279162500724
 30
0.0
 11
85.67733411069764
 21
136.0740403010882
 31
0.0
  0
LINE
  5
252
330
1F
100
AcDbEntity
  8
0
  6
Continuous
 62
     7
100
AcDbLine
 10
70.84719136251897
 20
135.098044581297
 30
0.0
 11
85.67733411069764
 21
135.098044581297
 31
0.0
  0
LINE
  5
253
330
1F
100
AcDbEntity
  8
0
  6
Continuous
 62
     7
100
AcDbLine
 10
70.67493511731715
 20
135.1084974276239
 30
0.0
 11
70.84719136251897
 21
135.098044581297
 31
0.0
  0
LINE
  5
254
330
1F
100
AcDbEntity
  8
0
  6
Continuous
 62
     7
100
AcDbLine
 10
108.1727756818012
 20
141.1920549260037
 30
0.0
 11
109.5168986775534
 21
141.6812756876505
 31
0.0
  0
LINE
  5
255
330
1F
100
AcDbEntity
  8
0
  6
Continuous
 62
     7
100
AcDbLine
 10
101.5023614470926
 20
140.8297438241707
 30
0.0
 11
84.85230677430286
 21
140.8297438241707
 31
0.0
  0
LINE
  5
256
330
1F
100
AcDbEntity
  8
0
  6
Continuous
 62
     7
100
AcDbLine
 10
109.7498979770335
 20
141.7660804972661
 30
0.0
 11
109.5168986775534
 21
141.6812756876505
 31
0.0
  0
LINE
  5
257
330
1F
100
AcDbEntity
  8
0
  6
Continuous
 62
     7
100
AcDbLine
 10
102.7523614470927
 20
140.8297438241707
 30
0.0
 11
107.1773341106976
 21
140.8297438241706
 31
0.0
  0
LINE
  5
258
330
1F
100
AcDbEntity
  8
0
  6
Continuous
 62
     7
100
AcDbLine
 10
112.4851211199456
 20
142.7616203053624
 30
0.0
 11
112.6722889496071
 21
142.8297438241716
 31
0.0
  0
LINE
  5
259
330
1F
100
AcDbEntity
  8
0
  6
Continuous
 62
     7
100
AcDbLine
 10
111.0095656290533
 20
142.2245620276695
 30
0.0
 11
111.6631561594872
 21
142.4624495261457
 31
0.0
  0
LINE
  5
25A
330
1F
100
AcDbEntity
  8
0
  6
Continuous
 62
     7
100
AcDbLine
 10
109.7498979770335
 20
141.7660804972661
 30
0.0
 11
111.0095656290533
 21
142.2245620276695
 31
0.0
  0
LINE
  5
25B
330
1F
100
AcDbEntity
  8
0
  6
Continuous
 62
     7
100
AcDbLine
 10
102.7523614470927
 20
140.8297438241707
 30
0.0
 11
101.5023614470926
 21
140.8297438241707
 31
0.0
  0
LINE
  5
25C
330
1F
100
AcDbEntity
  8
0
  6
Continuous
 62
     7
100
AcDbLine
 10
111.927260639865
 20
142.5585756957396
 30
0.0
 11
111.6631561594872
 21
142.4624495261457
 31
0.0
  0
LINE
  5
25D
330
1F
100
AcDbEntity
  8
0
  6
Continuous
 62
     7
100
AcDbLine
 10
111.927260639865
 20
142.5585756957396
 30
0.0
 11
112.4851211199456
 21
142.7616203053624
 31
0.0
  0
LINE
  5
25E
330
1F
100
AcDbEntity
  8
0
  6
Continuous
 62
     7
100
AcDbLine
 10
107.032262910983
 20
140.7769422256255
 30
0.0
 11
107.1773341106976
 21
140.8297438241706
 31
0.0
  0
LINE
  5
25F
330
1F
100
AcDbEntity
  8
0
  6
Continuous
 62
     7
100
AcDbLine
 10
107.1773341106976
 20
140.8297438241706
 30
0.0
 11
108.1727756818012
 21
141.1920549260037
 31
0.0
  0
LINE
  5
260
330
1F
100
AcDbEntity
  8
0
  6
Continuous
 62
     7
100
AcDbLine
 10
125.902135337823
 20
142.8297438241723
 30
0.0
 11
112.6722889496071
 21
142.8297438241716
 31
0.0
  0
LINE
  5
261
330
1F
100
AcDbEntity
  8
0
  6
Continuous
 62
     7
100
AcDbLine
 10
109.7498979770335
 20
141.7660804972661
 30
0.0
 11
121.1404843960701
 21
141.7660804972661
 31
0.0
  0
LINE
  5
262
330
1F
100
AcDbEntity
  8
0
  6
Continuous
 62
     7
100
AcDbLine
 10
125.9021353378229
 20
142.7297438241716
 30
0.0
 11
125.8857893459258
 21
142.7297438241716
 31
0.0
  0
LINE
  5
263
330
1F
100
AcDbEntity
  8
0
  6
Continuous
 62
     7
100
AcDbLine
 10
118.5552618572388
 20
140.5136580686829
 30
0.0
 11
118.6839783167497
 21
140.4467450080472
 31
0.0
  0
LINE
  5
264
330
1F
100
AcDbEntity
  8
0
  6
Continuous
 62
     7
100
AcDbLine
 10
121.1404843960701
 20
141.7660804972661
 30
0.0
 11
121.2322691050263
 21
141.6812756876505
 31
0.0
  0
LINE
  5
265
330
1F
100
AcDbEntity
  8
0
  6
Continuous
 62
     7
100
AcDbLine
 10
119.8833625136755
 20
141.1154504816919
 30
0.0
 11
119.7720284338303
 21
141.1920549260039
 31
0.0
  0
LINE
  5
266
330
1F
100
AcDbEntity
  8
0
  6
Continuous
 62
     7
100
AcDbLine
 10
118.6839783167497
 20
140.4467450080472
 30
0.0
 11
107.2534158055262
 21
140.446745008047
 31
0.0
  0
LINE
  5
267
330
1F
100
AcDbEntity
  8
0
  6
Continuous
 62
     7
100
AcDbLine
 10
108.1727756818012
 20
141.1920549260037
 30
0.0
 11
119.7720284338303
 21
141.1920549260039
 31
0.0
  0
LINE
  5
268
330
1F
100
AcDbEntity
  8
0
  6
Continuous
 62
     7
100
AcDbLine
 10
109.5168986775534
 20
141.6812756876505
 30
0.0
 11
121.2322691050263
 21
141.6812756876505
 31
0.0
  0
LINE
  5
269
330
1F
100
AcDbEntity
  8
0
  6
Continuous
 62
     7
100
AcDbLine
 10
118.5552618572388
 20
140.5136580686829
 30
0.0
 11
107.0823569704404
 21
140.5136580686826
 31
0.0
  0
LINE
  5
26A
330
1F
100
AcDbEntity
  8
0
  6
Continuous
 62
     7
100
AcDbLine
 10
111.0095656290533
 20
142.2245620276695
 30
0.0
 11
122.6339943052491
 21
142.2245620276695
 31
0.0
  0
LINE
  5
26B
330
1F
100
AcDbEntity
  8
0
  6
Continuous
 62
     7
100
AcDbLine
 10
111.6631561594872
 20
142.4624495261457
 30
0.0
 11
124.2712304803011
 21
142.4624495261457
 31
0.0
  0
LINE
  5
26C
330
1F
100
AcDbEntity
  8
0
  6
Continuous
 62
     7
100
AcDbLine
 10
111.927260639865
 20
142.5585756957396
 30
0.0
 11
124.2234886898275
 21
142.5585756957396
 31
0.0
  0
LINE
  5
26D
330
1F
100
AcDbEntity
  8
0
  6
Continuous
 62
     7
100
AcDbLine
 10
125.902135337823
 20
142.8297438241723
 30
0.0
 11
125.9021353378229
 21
142.7297438241716
 31
0.0
  0
LINE
  5
26E
330
1F
100
AcDbEntity
  8
0
  6
Continuous
 62
     7
100
AcDbLine
 10
112.4851211199456
 20
142.7616203053624
 30
0.0
 11
125.8780298496321
 21
142.7616203053624
 31
0.0
  0
LINE
  5
26F
330
1F
100
AcDbEntity
  8
0
  6
Continuous
 62
     7
100
AcDbLine
 10
122.7044431583598
 20
142.1332074819052
 30
0.0
 11
122.6339943052491
 21
142.2245620276695
 31
0.0
  0
LINE
  5
270
330
1F
100
AcDbEntity
  8
0
  6
Continuous
 62
     7
100
AcDbLine
 10
125.9021353378229
 20
142.7297438241716
 30
0.0
 11
125.9021353378229
 21
142.6843766652562
 31
0.0
  0
LINE
  5
271
330
1F
100
AcDbEntity
  8
0
  6
Continuous
 62
     7
100
AcDbLine
 10
124.2234886898275
 20
142.5585756957396
 30
0.0
 11
124.2712304803011
 21
142.4624495261457
 31
0.0
  0
LINE
  5
272
330
1F
100
AcDbEntity
  8
0
  6
Continuous
 62
     7
100
AcDbLine
 10
126.5273341106979
 20
142.8297438241723
 30
0.0
 11
125.902135337823
 21
142.8297438241723
 31
0.0
  0
LINE
  5
273
330
1F
100
AcDbEntity
  8
0
  6
Continuous
 62
     7
100
AcDbLine
 10
117.6574611633627
 20
139.688174858119
 30
0.0
 11
117.5138676436579
 21
139.7440941484661
 31
0.0
  0
LINE
  5
274
330
1F
100
AcDbEntity
  8
0
  6
Continuous
 62
     7
100
AcDbLine
 10
123.4186401648357
 20
129.2518954786695
 30
0.0
 11
123.477879791381
 21
129.3458647407483
 31
0.0
  0
LINE
  5
275
330
1F
100
AcDbEntity
  8
0
  6
Continuous
 62
     7
100
AcDbLine
 10
58.87842119568035
 20
128.9297438241715
 30
0.0
 11
59.62496005696846
 21
128.9297438241715
 31
0.0
  0
LINE
  5
276
330
1F
100
AcDbEntity
  8
0
  6
Continuous
 62
     7
100
AcDbLine
 10
59.62292431949936
 20
128.9465518773787
 30
0.0
 11
59.63500649516755
 21
128.8467954723526
 31
0.0
  0
LINE
  5
277
330
1F
100
AcDbEntity
  8
0
  6
Continuous
 62
     7
100
AcDbLine
 10
60.45253288357316
 20
142.6843766652562
 30
0.0
 11
60.45253288357316
 21
142.7297438241716
 31
0.0
  0
LINE
  5
278
330
1F
100
AcDbEntity
  8
0
  6
Continuous
 62
     7
100
AcDbLine
 10
60.45253288357321
 20
142.8297438241723
 30
0.0
 11
59.82733411069785
 21
142.8297438241715
 31
0.0
  0
LINE
  5
279
330
1F
100
AcDbEntity
  8
0
  6
Continuous
 62
     7
100
AcDbLine
 10
58.87842119568035
 20
128.9297438241715
 30
0.0
 11
58.87842118334396
 21
128.791052844211
 31
0.0
  0
LINE
  5
27A
330
1F
100
AcDbEntity
  8
0
  6
Continuous
 62
     7
100
AcDbLine
 10
60.45253288357316
 20
142.7297438241716
 30
0.0
 11
60.45253288357321
 21
142.8297438241723
 31
0.0
  0
LINE
  5
27B
330
1F
100
AcDbEntity
  8
0
  6
Continuous
 62
     7
100
AcDbLine
 10
60.46887887547047
 20
142.7297438241716
 30
0.0
 11
60.45253288357316
 21
142.7297438241716
 31
0.0
  0
LINE
  5
27C
330
1F
100
AcDbEntity
  8
0
  6
Continuous
 62
     7
100
AcDbLine
 10
105.2653168088222
 20
138.8983418516944
 30
0.0
 11
105.4209925041953
 21
138.8545047370156
 31
0.0
  0
LINE
  5
27D
330
1F
100
AcDbEntity
  8
0
  6
Continuous
 62
     7
100
AcDbLine
 10
69.53087717913695
 20
138.8545047370156
 30
0.0
 11
69.68655287451014
 21
138.8983418516944
 31
0.0
  0
LINE
  5
27E
330
1F
100
AcDbEntity
  8
0
  6
Continuous
 62
     7
100
AcDbLine
 10
81.08935141257348
 20
138.8983418516944
 30
0.0
 11
80.93367571720029
 21
138.8545047370156
 31
0.0
  0
LINE
  5
27F
330
1F
100
AcDbEntity
  8
0
  6
Continuous
 62
     7
100
AcDbLine
 10
69.68655287451014
 20
138.8983418516944
 30
0.0
 11
81.08935141257348
 21
138.8983418516944
 31
0.0
  0
LINE
  5
280
330
1F
100
AcDbEntity
  8
0
  6
Continuous
 62
     7
100
AcDbLine
 10
69.53087717913695
 20
138.8545047370156
 30
0.0
 11
80.93367571720029
 21
138.8545047370156
 31
0.0
  0
LINE
  5
281
330
1F
100
AcDbEntity
  8
0
  6
Continuous
 62
     7
100
AcDbLine
 10
83.60230677430314
 20
138.3297438241707
 30
0.0
 11
82.33117298897469
 21
138.3297438241707
 31
0.0
  0
LINE
  5
282
330
1F
100
AcDbEntity
  8
0
  6
Continuous
 62
     7
100
AcDbLine
 10
85.67733411069787
 20
138.3297438241707
 30
0.0
 11
85.67733411069764
 21
137.9928627847956
 31
0.0
  0
LINE
  5
283
330
1F
100
AcDbEntity
  8
0
  6
Continuous
 62
     7
100
AcDbLine
 10
83.60230677430314
 20
138.3297438241707
 30
0.0
 11
84.85230677430314
 21
138.3297438241709
 31
0.0
  0
LINE
  5
284
330
1F
100
AcDbEntity
  8
0
  6
Continuous
 62
     7
100
AcDbLine
 10
100.6773341106979
 20
138.3297438241707
 30
0.0
 11
85.67733411069787
 21
138.3297438241707
 31
0.0
  0
LINE
  5
285
330
1F
100
AcDbEntity
  8
0
  6
Continuous
 62
     7
100
AcDbLine
 10
85.67733411069787
 20
138.3297438241707
 30
0.0
 11
84.85230677430314
 21
138.3297438241709
 31
0.0
  0
LINE
  5
286
330
1F
100
AcDbEntity
  8
0
  6
Continuous
 62
     7
100
AcDbLine
 10
101.5023614470924
 20
138.3297438241709
 30
0.0
 11
100.6773341106979
 21
138.3297438241707
 31
0.0
  0
LINE
  5
287
330
1F
100
AcDbEntity
  8
0
  6
Continuous
 62
     7
100
AcDbLine
 10
100.6773341106979
 20
138.3297438241707
 30
0.0
 11
100.6773341106976
 21
137.9928627847956
 31
0.0
  0
LINE
  5
288
330
1F
100
AcDbEntity
  8
0
  6
Continuous
 62
     7
100
AcDbLine
 10
100.6773341106976
 20
137.9928627847956
 30
0.0
 11
116.0344665733515
 21
137.9928627847953
 31
0.0
  0
LINE
  5
289
330
1F
100
AcDbEntity
  8
0
  6
Continuous
 62
     7
100
AcDbLine
 10
116.6681153468861
 20
138.8983418516944
 30
0.0
 11
116.8237910422592
 21
138.8545047370156
 31
0.0
  0
LINE
  5
28A
330
1F
100
AcDbEntity
  8
0
  6
Continuous
 62
     7
100
AcDbLine
 10
102.7523614470923
 20
138.3297438241707
 30
0.0
 11
101.5023614470924
 21
138.3297438241709
 31
0.0
  0
LINE
  5
28B
330
1F
100
AcDbEntity
  8
0
  6
Continuous
 62
     7
100
AcDbLine
 10
119.263447241388
 20
130.8662992018342
 30
0.0
 11
119.1431288822374
 21
130.7943652217985
 31
0.0
  0
LINE
  5
28C
330
1F
100
AcDbEntity
  8
0
  6
Continuous
 62
     7
100
AcDbLine
 10
102.7523614470923
 20
138.3297438241707
 30
0.0
 11
104.0234952324207
 21
138.3297438241707
 31
0.0
  0
LINE
  5
28D
330
1F
100
AcDbEntity
  8
0
  6
Continuous
 62
     7
100
AcDbLine
 10
105.2653168088222
 20
138.8983418516944
 30
0.0
 11
116.6681153468861
 21
138.8983418516944
 31
0.0
  0
LINE
  5
28E
330
1F
100
AcDbEntity
  8
0
  6
Continuous
 62
     7
100
AcDbLine
 10
105.4209925041953
 20
138.8545047370156
 30
0.0
 11
116.8237910422592
 21
138.8545047370156
 31
0.0
  0
LINE
  5
28F
330
1F
100
AcDbEntity
  8
0
  6
Continuous
 62
     7
100
AcDbLine
 10
117.5138676436579
 20
139.7440941484661
 30
0.0
 11
106.1110691055939
 21
139.744094148466
 31
0.0
  0
LINE
  5
290
330
1F
100
AcDbEntity
  8
0
  6
Continuous
 62
     7
100
AcDbLine
 10
126.7196617262285
 20
128.8467954723526
 30
0.0
 11
126.7317439018966
 21
128.9465518773787
 31
0.0
  0
LINE
  5
291
330
1F
100
AcDbEntity
  8
0
  6
Continuous
 62
     7
100
AcDbLine
 10
76.83776954384228
 20
141.6812756876505
 30
0.0
 11
78.18189253959434
 21
141.1920549260037
 31
0.0
  0
LINE
  5
292
330
1F
100
AcDbEntity
  8
0
  6
Continuous
 62
     7
100
AcDbLine
 10
79.17733411069787
 20
140.8297438241706
 30
0.0
 11
79.32240531041265
 21
140.7769422256256
 31
0.0
  0
LINE
  5
293
330
1F
100
AcDbEntity
  8
0
  6
Continuous
 62
     7
100
AcDbLine
 10
78.18189253959434
 20
141.1920549260037
 30
0.0
 11
79.17733411069787
 21
140.8297438241706
 31
0.0
  0
LINE
  5
294
330
1F
100
AcDbEntity
  8
0
  6
Continuous
 62
     7
100
AcDbLine
 10
75.34510259234224
 20
142.2245620276695
 30
0.0
 11
76.60477024436216
 21
141.7660804972661
 31
0.0
  0
LINE
  5
295
330
1F
100
AcDbEntity
  8
0
  6
Continuous
 62
     7
100
AcDbLine
 10
76.83776954384228
 20
141.6812756876505
 30
0.0
 11
76.60477024436216
 21
141.7660804972661
 31
0.0
  0
LINE
  5
296
330
1F
100
AcDbEntity
  8
0
  6
Continuous
 62
     7
100
AcDbLine
 10
74.69151206190838
 20
142.4624495261455
 30
0.0
 11
75.34510259234224
 21
142.2245620276695
 31
0.0
  0
LINE
  5
297
330
1F
100
AcDbEntity
  8
0
  6
Continuous
 62
     7
100
AcDbLine
 10
74.69151206190838
 20
142.4624495261455
 30
0.0
 11
74.42740758153064
 21
142.5585756957396
 31
0.0
  0
LINE
  5
298
330
1F
100
AcDbEntity
  8
0
  6
Continuous
 62
     7
100
AcDbLine
 10
83.60230677430286
 20
140.8297438241707
 30
0.0
 11
79.17733411069787
 21
140.8297438241706
 31
0.0
  0
LINE
  5
299
330
1F
100
AcDbEntity
  8
0
  6
Continuous
 62
     7
100
AcDbLine
 10
63.72067391614695
 20
142.2245620276695
 30
0.0
 11
75.34510259234224
 21
142.2245620276695
 31
0.0
  0
LINE
  5
29A
330
1F
100
AcDbEntity
  8
0
  6
Continuous
 62
     7
100
AcDbLine
 10
74.42740758153064
 20
142.5585756957396
 30
0.0
 11
62.13117953156888
 21
142.5585756957396
 31
0.0
  0
LINE
  5
29B
330
1F
100
AcDbEntity
  8
0
  6
Continuous
 62
     7
100
AcDbLine
 10
63.72067391614695
 20
142.2245620276695
 30
0.0
 11
63.65022506303626
 21
142.1332074819052
 31
0.0
  0
LINE
  5
29C
330
1F
100
AcDbEntity
  8
0
  6
Continuous
 62
     7
100
AcDbLine
 10
65.12239911636988
 20
141.6812756876505
 30
0.0
 11
65.21418382532596
 21
141.7660804972661
 31
0.0
  0
LINE
  5
29D
330
1F
100
AcDbEntity
  8
0
  6
Continuous
 62
     7
100
AcDbLine
 10
67.79940636415745
 20
140.5136580686829
 30
0.0
 11
79.27231125088088
 21
140.5136580687806
 31
0.0
  0
LINE
  5
29E
330
1F
100
AcDbEntity
  8
0
  6
Continuous
 62
     7
100
AcDbLine
 10
68.84080057773838
 20
139.7440941484661
 30
0.0
 11
68.69720705803354
 21
139.6881748581189
 31
0.0
  0
LINE
  5
29F
330
1F
100
AcDbEntity
  8
0
  6
Continuous
 62
     7
100
AcDbLine
 10
67.67068990464645
 20
140.446745008047
 30
0.0
 11
67.79940636415745
 21
140.5136580686829
 31
0.0
  0
LINE
  5
2A0
330
1F
100
AcDbEntity
  8
0
  6
Continuous
 62
     7
100
AcDbLine
 10
76.83776954384228
 20
141.6812756876505
 30
0.0
 11
65.12239911636988
 21
141.6812756876505
 31
0.0
  0
LINE
  5
2A1
330
1F
100
AcDbEntity
  8
0
  6
Continuous
 62
     7
100
AcDbLine
 10
65.21418382532596
 20
141.7660804972661
 30
0.0
 11
76.60477024436216
 21
141.7660804972661
 31
0.0
  0
LINE
  5
2A2
330
1F
100
AcDbEntity
  8
0
  6
Continuous
 62
     7
100
AcDbLine
 10
80.24359911580154
 20
139.7440941484661
 30
0.0
 11
68.84080057773838
 21
139.7440941484661
 31
0.0
  0
LINE
  5
2A3
330
1F
100
AcDbEntity
  8
0
  6
Continuous
 62
     7
100
AcDbLine
 10
67.67068990464645
 20
140.446745008047
 30
0.0
 11
79.10125241585314
 21
140.4467450080333
 31
0.0
  0
LINE
  5
2A4
330
1F
100
AcDbEntity
  8
0
  6
Continuous
 62
     7
100
AcDbLine
 10
66.58263978756588
 20
141.1920549260037
 30
0.0
 11
78.18189253959434
 21
141.1920549260037
 31
0.0
  0
LINE
  5
2A5
330
1F
100
AcDbEntity
  8
0
  6
Continuous
 62
     7
100
AcDbLine
 10
66.58263978756588
 20
141.1920549260037
 30
0.0
 11
66.47130570772066
 21
141.1154504816919
 31
0.0
  0
LINE
  5
2A6
330
1F
100
AcDbEntity
  8
0
  6
Continuous
 62
     7
100
AcDbLine
 10
62.08343774109494
 20
142.4624495261455
 30
0.0
 11
62.13117953156888
 21
142.5585756957396
 31
0.0
  0
LINE
  5
2A7
330
1F
100
AcDbEntity
  8
0
  6
Continuous
 62
     7
100
AcDbLine
 10
62.08343774109494
 20
142.4624495261455
 30
0.0
 11
74.69151206190838
 21
142.4624495261455
 31
0.0
  0
LINE
  5
2A8
330
1F
100
AcDbEntity
  8
0
  6
Continuous
 62
     7
100
AcDbLine
 10
73.68237927178853
 20
142.8297438241716
 30
0.0
 11
73.86954710145017
 21
142.7616203053624
 31
0.0
  0
LINE
  5
2A9
330
1F
100
AcDbEntity
  8
0
  6
Continuous
 62
     7
100
AcDbLine
 10
73.68237927178853
 20
142.8297438241716
 30
0.0
 11
60.45253288357321
 21
142.8297438241723
 31
0.0
  0
LINE
  5
2AA
330
1F
100
AcDbEntity
  8
0
  6
Continuous
 62
     7
100
AcDbLine
 10
73.86954710145017
 20
142.7616203053624
 30
0.0
 11
74.42740758153064
 21
142.5585756957396
 31
0.0
  0
LINE
  5
2AB
330
1F
100
AcDbEntity
  8
0
  6
Continuous
 62
     7
100
AcDbLine
 10
73.86954710145017
 20
142.7616203053624
 30
0.0
 11
60.47663837176407
 21
142.7616203053624
 31
0.0
  0
LINE
  5
2AC
330
1F
100
AcDbEntity
  8
0
  6
Continuous
 62
     7
100
AcDbLine
 10
67.21153933916185
 20
130.7943652218004
 30
0.0
 11
67.09122098000807
 21
130.8662992018342
 31
0.0
  0
LINE
  5
2AD
330
1F
100
AcDbEntity
  8
0
  6
Continuous
 62
     7
100
AcDbLine
 10
65.81396425267667
 20
130.2475265629837
 30
0.0
 11
65.91577164476769
 21
130.1666248635463
 31
0.0
  0
LINE
  5
2AE
330
1F
100
AcDbEntity
  8
0
  6
Continuous
 62
     7
100
AcDbLine
 10
62.87678843001504
 20
129.3458647407483
 30
0.0
 11
62.93602805656036
 21
129.2518954786696
 31
0.0
  0
LINE
  5
2AF
330
1F
100
AcDbEntity
  8
0
  6
Continuous
 62
     7
100
AcDbLine
 10
65.91577164476769
 20
130.1666248635463
 30
0.0
 11
120.4388965766284
 21
130.1666248635463
 31
0.0
  0
LINE
  5
2B0
330
1F
100
AcDbEntity
  8
0
  6
Continuous
 62
     7
100
AcDbLine
 10
64.48129439457347
 20
129.6491106741586
 30
0.0
 11
64.39997953462807
 21
129.7374054334444
 31
0.0
  0
LINE
  5
2B1
330
1F
100
AcDbEntity
  8
0
  6
Continuous
 62
     7
100
AcDbLine
 10
127.0940044829821
 20
128.4839817298432
 30
0.0
 11
59.26066373841354
 21
128.4839817298432
 31
0.0
  0
LINE
  5
2B2
330
1F
100
AcDbEntity
  8
0
  6
Continuous
 62
     7
100
AcDbLine
 10
61.31004948228326
 20
128.9827106190346
 30
0.0
 11
61.27403812108486
 21
129.080525379108
 31
0.0
  0
LINE
  5
2B3
330
1F
100
AcDbEntity
  8
0
  6
Continuous
 62
     7
100
AcDbLine
 10
125.0806301003112
 20
129.080525379108
 30
0.0
 11
61.27403812108486
 21
129.080525379108
 31
0.0
  0
LINE
  5
2B4
330
1F
100
AcDbEntity
  8
0
  6
Continuous
 62
     7
100
AcDbLine
 10
61.31004948228326
 20
128.9827106190346
 30
0.0
 11
125.0446187391128
 21
128.9827106190346
 31
0.0
  0
LINE
  5
2B5
330
1F
100
AcDbEntity
  8
0
  6
Continuous
 62
     7
100
AcDbLine
 10
125.0806301003112
 20
129.080525379108
 30
0.0
 11
125.0446187391128
 21
128.9827106190346
 31
0.0
  0
LINE
  5
2B6
330
1F
100
AcDbEntity
  8
0
  6
Continuous
 62
     7
100
AcDbLine
 10
62.93602805656036
 20
129.2518954786696
 30
0.0
 11
123.4186401648357
 21
129.2518954786695
 31
0.0
  0
LINE
  5
2B7
330
1F
100
AcDbEntity
  8
0
  6
Continuous
 62
     7
100
AcDbLine
 10
126.7297081644276
 20
128.9297438241715
 30
0.0
 11
127.4762470257178
 21
128.9297438241715
 31
0.0
  0
LINE
  5
2B8
330
1F
100
AcDbEntity
  8
0
  6
Continuous
 62
     7
100
AcDbLine
 10
59.63500649516755
 20
128.8467954723526
 30
0.0
 11
126.7196617262285
 21
128.8467954723526
 31
0.0
  0
LINE
  5
2B9
330
1F
100
AcDbEntity
  8
0
  6
Continuous
 62
     7
100
AcDbLine
 10
127.4762470380552
 20
128.7910528442087
 30
0.0
 11
127.4762470257178
 21
128.9297438241715
 31
0.0
  0
LINE
  5
2BA
330
1F
100
AcDbEntity
  8
0
  6
Continuous
 62
     7
100
AcDbLine
 10
121.8733738268226
 20
129.6491106741586
 30
0.0
 11
64.48129439457347
 21
129.6491106741586
 31
0.0
  0
LINE
  5
2BB
330
1F
100
AcDbEntity
  8
0
  6
Continuous
 62
     7
100
AcDbLine
 10
121.954688686768
 20
129.7374054334445
 30
0.0
 11
64.39997953462807
 21
129.7374054334444
 31
0.0
  0
LINE
  5
2BC
330
1F
100
AcDbEntity
  8
0
  6
Continuous
 62
     7
100
AcDbLine
 10
121.954688686768
 20
129.7374054334445
 30
0.0
 11
121.8733738268226
 21
129.6491106741586
 31
0.0
  0
LINE
  5
2BD
330
1F
100
AcDbEntity
  8
0
  6
Continuous
 62
     7
100
AcDbLine
 10
119.1431288822374
 20
130.7943652217985
 30
0.0
 11
67.21153933916185
 21
130.7943652218004
 31
0.0
  0
LINE
  5
2BE
330
1F
100
AcDbEntity
  8
0
  6
Continuous
 62
     7
100
AcDbLine
 10
119.263447241388
 20
130.8662992018342
 30
0.0
 11
67.09122098000807
 21
130.8662992018342
 31
0.0
  0
LINE
  5
2BF
330
1F
100
AcDbEntity
  8
0
  6
Continuous
 62
     7
100
AcDbLine
 10
83.60230677430286
 20
140.8297438241707
 30
0.0
 11
84.85230677430286
 21
140.8297438241707
 31
0.0
  0
LINE
  5
2C0
330
1F
100
AcDbEntity
  8
1
  6
Continuous
 62
     7
100
AcDbLine
 10
255.1071898400911
 20
117.1297438241738
 30
0.0
 11
255.1071898400911
 21
114.2297438241738
 31
0.0
  0
LINE
  5
2C1
330
1F
100
AcDbEntity
  8
0
  6
Continuous
 62
     7
100
AcDbLine
 10
247.0773350575349
 20
138.8297438241691
 30
0.0
 11
247.0773350575349
 21
140.3297438241688
 31
0.0
  0
LINE
  5
2C2
330
1F
100
AcDbEntity
  8
0
  6
Continuous
 62
     7
100
AcDbLine
 10
246.242398566996
 20
140.8297438241689
 30
0.0
 11
246.5773350575349
 21
140.8297438241691
 31
0.0
  0
LINE
  5
2C3
330
1F
100
AcDbEntity
  8
0
  6
Continuous
 62
     7
100
AcDbLine
 10
246.242398566996
 20
140.8297438241689
 30
0.0
 11
243.9763145431018
 21
140.8297438241691
 31
0.0
  0
LINE
  5
2C4
330
1F
100
AcDbEntity
  8
0
  6
Continuous
 62
     7
100
AcDbLine
 10
246.2423985669959
 20
138.3297438241689
 30
0.0
 11
246.5773350575349
 21
138.3297438241691
 31
0.0
  0
LINE
  5
2C5
330
1F
100
AcDbEntity
  8
0
  6
Continuous
 62
     7
100
AcDbLine
 10
246.2423985669959
 20
138.3297438241689
 30
0.0
 11
245.5085091338603
 21
138.3297438241691
 31
0.0
  0
LINE
  5
2C6
330
1F
100
AcDbEntity
  8
1
  6
Continuous
 62
     7
100
AcDbLine
 10
108.0
 20
9.99999999999986
 30
0.0
 11
138.0
 21
9.99999999999986
 31
0.0
  0
LINE
  5
2C7
330
1F
100
AcDbEntity
  8
1
  6
Continuous
 62
     7
100
AcDbLine
 10
108.0
 20
14.99999999999989
 30
0.0
 11
138.0
 21
14.99999999999989
 31
0.0
  0
LINE
  5
2C8
330
1F
100
AcDbEntity
  8
1
  6
Continuous
 62
     7
100
AcDbLine
 10
248.0
 20
20.0
 30
0.0
 11
248.0
 21
5.0
 31
0.0
  0
LINE
  5
2C9
330
1F
100
AcDbEntity
  8
1
  6
Continuous
 62
     7
100
AcDbLine
 10
265.3526013774854
 20
20.0
 30
0.0
 11
265.3526013774854
 21
5.0
 31
0.0
  0
LINE
  5
2CA
330
1F
100
AcDbEntity
  8
1
  6
Continuous
 62
     7
100
AcDbLine
 10
138.0
 20
20.0
 30
0.0
 11
138.0
 21
5.0
 31
0.0
  0
LINE
  5
2CB
330
1F
100
AcDbEntity
  8
1
  6
Continuous
 62
     7
100
AcDbLine
 10
148.4999999999997
 20
210.0000000000001
 30
0.0
 11
148.4999999999997
 21
195.0000000000001
 31
0.0
  0
LINE
  5
2CC
330
1F
100
AcDbEntity
  8
1
  6
Continuous
 62
     7
100
AcDbLine
 10
-0.00000000000011
 20
0.0
 30
0.0
 11
297.0
 21
0.0
 31
0.0
  0
LINE
  5
2CD
330
1F
100
AcDbEntity
  8
1
  6
Continuous
 62
     7
100
AcDbLine
 10
-0.00000000000011
 20
210.0000000000001
 30
0.0
 11
-0.00000000000011
 21
0.0
 31
0.0
  0
LINE
  5
2CE
330
1F
100
AcDbEntity
  8
1
  6
Continuous
 62
     7
100
AcDbLine
 10
297.0
 20
210.0000000000001
 30
0.0
 11
-0.00000000000011
 21
210.0000000000001
 31
0.0
  0
LINE
  5
2CF
330
1F
100
AcDbEntity
  8
1
  6
Continuous
 62
     7
100
AcDbLine
 10
297.0
 20
0.0
 30
0.0
 11
297.0
 21
210.0000000000001
 31
0.0
  0
LINE
  5
2D0
330
1F
100
AcDbEntity
  8
1
  6
Continuous
 62
     7
100
AcDbLine
 10
4.99999999999977
 20
5.0
 30
0.0
 11
292.0
 21
5.0
 31
0.0
  0
LINE
  5
2D1
330
1F
100
AcDbEntity
  8
1
  6
Continuous
 62
     7
100
AcDbLine
 10
292.0
 20
5.0
 30
0.0
 11
292.0
 21
189.0
 31
0.0
  0
LINE
  5
2D2
330
1F
100
AcDbEntity
  8
1
  6
Continuous
 62
     7
100
AcDbLine
 10
292.0
 20
189.0
 30
0.0
 11
4.99999999999977
 21
189.0
 31
0.0
  0
LINE
  5
2D3
102
{ACAD_REACTORS
330
41E
102
}
330
1F
100
AcDbEntity
  8
1
  6
Continuous
 62
     7
100
AcDbLine
 10
281.0096340220761
 20
10.07749983983263
 30
0.0
 11
281.0096340220761
 21
14.92250016016737
 31
0.0
  0
LINE
  5
2D4
102
{ACAD_REACTORS
330
41B
102
}
330
1F
100
AcDbEntity
  8
1
  6
Continuous
 62
     7
100
AcDbLine
 10
279.6763006887427
 20
12.5
 30
0.0
 11
279.6763006887427
 21
14.23205080756884
 31
0.0
  0
LINE
  5
2D5
102
{ACAD_REACTORS
330
41B
102
}
330
1F
100
AcDbEntity
  8
1
  6
Continuous
 62
     7
100
AcDbLine
 10
279.6763006887427
 20
14.23205080756884
 30
0.0
 11
278.8206382560401
 21
12.75
 31
0.0
  0
LINE
  5
2D6
102
{ACAD_REACTORS
330
41B
102
}
330
1F
100
AcDbEntity
  8
1
  6
Continuous
 62
     7
100
AcDbLine
 10
278.5319631214452
 20
12.75
 30
0.0
 11
277.6763006887427
 21
14.23205080756884
 31
0.0
  0
LINE
  5
2D7
102
{ACAD_REACTORS
330
41B
102
}
330
1F
100
AcDbEntity
  8
1
  6
Continuous
 62
     7
100
AcDbLine
 10
277.6763006887427
 20
14.23205080756884
 30
0.0
 11
277.6763006887427
 21
12.5
 31
0.0
  0
LINE
  5
2D8
330
1F
100
AcDbEntity
  8
1
  6
Continuous
 62
     7
100
AcDbLine
 10
270.2598654136011
 20
12.64436426434133
 30
0.0
 11
278.6763006887427
 21
17.5
 31
0.0
  0
LINE
  5
2D9
330
1F
100
AcDbEntity
  8
1
  6
Continuous
 62
     7
100
AcDbLine
 10
278.6763006887427
 20
17.5
 30
0.0
 11
287.0927359638841
 21
12.64436426434133
 31
0.0
  0
LINE
  5
2DA
330
1F
100
AcDbEntity
  8
1
  6
Continuous
 62
     7
100
AcDbLine
 10
287.0927359638841
 20
12.35563573565855
 30
0.0
 11
278.6763006887427
 21
7.5
 31
0.0
  0
LINE
  5
2DB
330
1F
100
AcDbEntity
  8
1
  6
Continuous
 62
     7
100
AcDbLine
 10
278.6763006887427
 20
7.5
 30
0.0
 11
270.2598654136011
 21
12.35563573565855
 31
0.0
  0
LINE
  5
2DC
102
{ACAD_REACTORS
330
41B
102
}
330
1F
100
AcDbEntity
  8
1
  6
Continuous
 62
     7
100
AcDbLine
 10
277.0096340220759
 20
12.5
 30
0.0
 11
277.0096340220759
 21
15.73121731203457
 31
0.0
  0
LINE
  5
2DD
102
{ACAD_REACTORS
330
41B
102
}
330
1F
100
AcDbEntity
  8
1
  6
Continuous
 62
     7
100
AcDbLine
 10
277.5040677056994
 20
15.86370041827229
 30
0.0
 11
278.6763006887427
 21
13.83333333333326
 31
0.0
  0
LINE
  5
2DE
102
{ACAD_REACTORS
330
41B
102
}
330
1F
100
AcDbEntity
  8
1
  6
Continuous
 62
     7
100
AcDbLine
 10
277.0096340220759
 20
12.5
 30
0.0
 11
277.0096340220759
 21
10.84758507263291
 31
0.0
  0
LINE
  5
2DF
102
{ACAD_REACTORS
330
41B
102
}
330
1F
100
AcDbEntity
  8
1
  6
Continuous
 62
     7
100
AcDbLine
 10
277.6763006887427
 20
10.84758507263291
 30
0.0
 11
277.6763006887427
 21
12.5
 31
0.0
  0
LINE
  5
2E0
102
{ACAD_REACTORS
330
41B
102
}
330
1F
100
AcDbEntity
  8
1
  6
Continuous
 62
     7
100
AcDbLine
 10
279.6763006887427
 20
12.5
 30
0.0
 11
279.6763006887427
 21
9.3082690706018
 31
0.0
  0
LINE
  5
2E1
102
{ACAD_REACTORS
330
41B
102
}
330
1F
100
AcDbEntity
  8
1
  6
Continuous
 62
     7
100
AcDbLine
 10
280.3429673554093
 20
9.3082690706018
 30
0.0
 11
280.3429673554093
 21
15.73121731203457
 31
0.0
  0
LINE
  5
2E2
102
{ACAD_REACTORS
330
41B
102
}
330
1F
100
AcDbEntity
  8
1
  6
Continuous
 62
     7
100
AcDbLine
 10
279.848533671786
 20
15.86370041827229
 30
0.0
 11
278.6763006887427
 21
13.83333333333326
 31
0.0
  0
LINE
  5
2E3
102
{ACAD_REACTORS
330
41C
102
}
330
1F
100
AcDbEntity
  8
1
  6
Continuous
 62
     7
100
AcDbLine
 10
275.6763006887427
 20
10.27002114803258
 30
0.0
 11
275.6763006887427
 21
14.92250016016737
 31
0.0
  0
LINE
  5
2E4
102
{ACAD_REACTORS
330
41C
102
}
330
1F
100
AcDbEntity
  8
1
  6
Continuous
 62
     7
100
AcDbLine
 10
276.3429673554093
 20
14.92250016016737
 30
0.0
 11
276.3429673554093
 21
10.2700211480327
 31
0.0
  0
LINE
  5
2E5
102
{ACAD_REACTORS
330
41C
102
}
330
1F
100
AcDbEntity
  8
1
  6
Continuous
 62
     7
100
AcDbLine
 10
276.3429673554093
 20
10.2700211480327
 30
0.0
 11
278.5095415065725
 21
9.0200745223616
 31
0.0
  0
LINE
  5
2E6
102
{ACAD_REACTORS
330
41C
102
}
330
1F
100
AcDbEntity
  8
1
  6
Continuous
 62
     7
100
AcDbLine
 10
278.1763932042461
 20
8.44261746499581
 30
0.0
 11
276.009819053083
 21
9.69256409066691
 31
0.0
  0
LINE
  5
2E7
102
{ACAD_REACTORS
330
41D
102
}
330
1F
100
AcDbEntity
  8
1
  6
Continuous
 62
     7
100
AcDbLine
 10
275.0096340220759
 20
14.15326939093666
 30
0.0
 11
275.0096340220759
 21
11.0392519172633
 31
0.0
  0
LINE
  5
2E8
102
{ACAD_REACTORS
330
41D
102
}
330
1F
100
AcDbEntity
  8
1
  6
Continuous
 62
     7
100
AcDbLine
 10
275.0096340220759
 20
11.0392519172633
 30
0.0
 11
275.0096340220759
 21
10.84673060906323
 31
0.0
  0
LINE
  5
2E9
102
{ACAD_REACTORS
330
41D
102
}
330
1F
100
AcDbEntity
  8
1
  6
Continuous
 62
     7
100
AcDbLine
 10
274.3429673554093
 20
10.84673060906323
 30
0.0
 11
274.3429673554093
 21
14.15326939093666
 31
0.0
  0
LINE
  5
2EA
102
{ACAD_REACTORS
330
41E
102
}
330
1F
100
AcDbEntity
  8
1
  6
Continuous
 62
     7
100
AcDbLine
 10
281.5095415065725
 20
15.21122868885027
 30
0.0
 11
282.8428748399058
 21
14.44199791961944
 31
0.0
  0
LINE
  5
2EB
102
{ACAD_REACTORS
330
41E
102
}
330
1F
100
AcDbEntity
  8
1
  6
Continuous
 62
     7
100
AcDbLine
 10
282.5097265375795
 20
13.86454086225376
 30
0.0
 11
281.6763006887427
 21
14.34536346735195
 31
0.0
  0
LINE
  5
2EC
102
{ACAD_REACTORS
330
41E
102
}
330
1F
100
AcDbEntity
  8
1
  6
Continuous
 62
     7
100
AcDbLine
 10
281.6763006887427
 20
14.34536346735195
 30
0.0
 11
281.6763006887427
 21
12.83333333333326
 31
0.0
  0
LINE
  5
2ED
102
{ACAD_REACTORS
330
41E
102
}
330
1F
100
AcDbEntity
  8
1
  6
Continuous
 62
     7
100
AcDbLine
 10
281.6763006887427
 20
12.83333333333326
 30
0.0
 11
282.6763006887427
 21
12.83333333333326
 31
0.0
  0
LINE
  5
2EE
102
{ACAD_REACTORS
330
41E
102
}
330
1F
100
AcDbEntity
  8
1
  6
Continuous
 62
     7
100
AcDbLine
 10
282.6763006887427
 20
12.16666666666663
 30
0.0
 11
281.6763006887427
 21
12.16666666666663
 31
0.0
  0
LINE
  5
2EF
102
{ACAD_REACTORS
330
41E
102
}
330
1F
100
AcDbEntity
  8
1
  6
Continuous
 62
     7
100
AcDbLine
 10
281.6763006887427
 20
12.16666666666663
 30
0.0
 11
281.6763006887427
 21
10.65463653264794
 31
0.0
  0
LINE
  5
2F0
102
{ACAD_REACTORS
330
41E
102
}
330
1F
100
AcDbEntity
  8
1
  6
Continuous
 62
     7
100
AcDbLine
 10
281.6763006887427
 20
10.65463653264794
 30
0.0
 11
282.5097265375795
 21
11.13545913774624
 31
0.0
  0
LINE
  5
2F1
102
{ACAD_REACTORS
330
41E
102
}
330
1F
100
AcDbEntity
  8
1
  6
Continuous
 62
     7
100
AcDbLine
 10
282.8428748399058
 20
10.55800208038033
 30
0.0
 11
281.5095415065725
 21
9.78877131114973
 31
0.0
  0
LINE
  5
2F2
330
1F
100
AcDbEntity
  8
1
  6
Continuous
 62
     7
100
AcDbLine
 10
108.0
 20
25.0
 30
0.0
 11
292.0
 21
25.0
 31
0.0
  0
LINE
  5
2F3
330
1F
100
AcDbEntity
  8
1
  6
Continuous
 62
     7
100
AcDbLine
 10
115.0
 20
20.0
 30
0.0
 11
115.0
 21
25.0
 31
0.0
  0
LINE
  5
2F4
330
1F
100
AcDbEntity
  8
1
  6
Continuous
 62
     7
100
AcDbLine
 10
133.0000000000001
 20
20.0
 30
0.0
 11
133.0000000000001
 21
25.0
 31
0.0
  0
LINE
  5
2F5
330
1F
100
AcDbEntity
  8
1
  6
Continuous
 62
     7
100
AcDbLine
 10
108.0
 20
30.0
 30
0.0
 11
292.0
 21
30.0
 31
0.0
  0
LINE
  5
2F6
330
1F
100
AcDbEntity
  8
1
  6
Continuous
 62
     7
100
AcDbLine
 10
115.0
 20
25.0
 30
0.0
 11
115.0
 21
30.0
 31
0.0
  0
LINE
  5
2F7
330
1F
100
AcDbEntity
  8
1
  6
Continuous
 62
     7
100
AcDbLine
 10
133.0000000000001
 20
25.0
 30
0.0
 11
133.0000000000001
 21
30.0
 31
0.0
  0
LINE
  5
2F8
330
1F
100
AcDbEntity
  8
1
  6
Continuous
 62
     7
100
AcDbLine
 10
108.0
 20
35.0
 30
0.0
 11
292.0
 21
35.0
 31
0.0
  0
LINE
  5
2F9
330
1F
100
AcDbEntity
  8
1
  6
Continuous
 62
     7
100
AcDbLine
 10
115.0
 20
30.0
 30
0.0
 11
115.0
 21
35.0
 31
0.0
  0
LINE
  5
2FA
330
1F
100
AcDbEntity
  8
1
  6
Continuous
 62
     7
100
AcDbLine
 10
133.0000000000001
 20
30.0
 30
0.0
 11
133.0000000000001
 21
35.0
 31
0.0
  0
LINE
  5
2FB
330
1F
100
AcDbEntity
  8
1
  6
Continuous
 62
     7
100
AcDbLine
 10
108.0
 20
40.0
 30
0.0
 11
292.0
 21
40.0
 31
0.0
  0
LINE
  5
2FC
330
1F
100
AcDbEntity
  8
1
  6
Continuous
 62
     7
100
AcDbLine
 10
115.0
 20
35.0
 30
0.0
 11
115.0
 21
40.0
 31
0.0
  0
LINE
  5
2FD
330
1F
100
AcDbEntity
  8
1
  6
Continuous
 62
     7
100
AcDbLine
 10
133.0000000000001
 20
35.0
 30
0.0
 11
133.0000000000001
 21
40.0
 31
0.0
  0
LINE
  5
2FE
330
1F
100
AcDbEntity
  8
1
  6
Continuous
 62
     7
100
AcDbLine
 10
4.99999999999977
 20
189.0
 30
0.0
 11
4.99999999999977
 21
5.0
 31
0.0
  0
LINE
  5
2FF
330
1F
100
AcDbEntity
  8
1
  6
Continuous
 62
     7
100
AcDbLine
 10
108.0
 20
20.0
 30
0.0
 11
292.0
 21
20.0
 31
0.0
  0
LINE
  5
300
330
1F
100
AcDbEntity
  8
1
  6
Continuous
 62
     7
100
AcDbLine
 10
108.0
 20
4.99999999999989
 30
0.0
 11
108.0
 21
40.0
 31
0.0
  0
ARC
  5
301
330
1F
100
AcDbEntity
  8
0
  6
Continuous
 62
     7
100
AcDbCircle
 10
56.17733411069787
 20
142.3297438241723
 30
0.0
 40
0.5
100
AcDbArc
 50
90.0
 51
180.0
  0
ARC
  5
302
330
1F
100
AcDbEntity
  8
0
  6
Continuous
 62
     7
100
AcDbCircle
 10
130.177334110698
 20
110.9297438241734
 30
0.0
 40
0.5
100
AcDbArc
 50
270.0
 51
0.0
  0
ARC
  5
303
330
1F
100
AcDbEntity
  8
0
  6
Continuous
 62
     7
100
AcDbCircle
 10
56.17733411069798
 20
110.9297438241733
 30
0.0
 40
0.5
100
AcDbArc
 50
180.0
 51
270.0
  0
ARC
  5
304
330
1F
100
AcDbEntity
  8
0
  6
Continuous
 62
     7
100
AcDbCircle
 10
130.177334110698
 20
142.3297438241723
 30
0.0
 40
0.5
100
AcDbArc
 50
0.0
 51
90.0
  0
ARC
  5
305
330
1F
100
AcDbEntity
  8
0
  6
Continuous
 62
     7
100
AcDbCircle
 10
106.1773345774383
 20
80.3297438241743
 30
0.0
 40
1.0
100
AcDbArc
 50
90.0
 51
180.0
  0
ARC
  5
306
330
1F
100
AcDbEntity
  8
0
  6
Continuous
 62
     7
100
AcDbCircle
 10
104.1773345774383
 20
67.32974382417427
 30
0.0
 40
1.0
100
AcDbArc
 50
270.0
 51
0.0
  0
ARC
  5
307
330
1F
100
AcDbEntity
  8
0
  6
Continuous
 62
     7
100
AcDbCircle
 10
124.1053551251612
 20
107.9297438241743
 30
0.0
 40
0.4999999999999303
100
AcDbArc
 50
330.9453959009203
 51
29.05460409907968
  0
ARC
  5
308
330
1F
100
AcDbEntity
  8
0
  6
Continuous
 62
     7
100
AcDbCircle
 10
124.7493140297154
 20
107.0297438241743
 30
0.0
 40
0.5000000000000296
100
AcDbArc
 50
150.9453959009267
 51
209.0546040990733
  0
ARC
  5
309
330
1F
100
AcDbEntity
  8
0
  6
Continuous
 62
     7
100
AcDbCircle
 10
124.1773345774383
 20
106.0001808100756
 30
0.0
 40
0.5
100
AcDbArc
 50
0.0
 51
29.05460409907968
  0
ARC
  5
30A
330
1F
100
AcDbEntity
  8
0
  6
Continuous
 62
     7
100
AcDbCircle
 10
124.7493140297154
 20
108.8297438241743
 30
0.0
 40
0.5000000000000296
100
AcDbArc
 50
150.9453959009267
 51
209.0546040990733
  0
ARC
  5
30B
330
1F
100
AcDbEntity
  8
0
  6
Continuous
 62
     7
100
AcDbCircle
 10
124.7493140297154
 20
112.4297438241743
 30
0.0
 40
0.5000000000000296
100
AcDbArc
 50
150.9453959009267
 51
209.0546040990733
  0
ARC
  5
30C
330
1F
100
AcDbEntity
  8
0
  6
Continuous
 62
     7
100
AcDbCircle
 10
124.7493140297154
 20
110.6297438241743
 30
0.0
 40
0.5000000000000296
100
AcDbArc
 50
150.9453959009267
 51
209.0546040990733
  0
ARC
  5
30D
330
1F
100
AcDbEntity
  8
0
  6
Continuous
 62
     7
100
AcDbCircle
 10
124.1053551251612
 20
111.5297438241743
 30
0.0
 40
0.4999999999999303
100
AcDbArc
 50
330.9453959009203
 51
29.05460409907968
  0
ARC
  5
30E
330
1F
100
AcDbEntity
  8
0
  6
Continuous
 62
     7
100
AcDbCircle
 10
124.1053551251612
 20
109.7297438241743
 30
0.0
 40
0.4999999999999303
100
AcDbArc
 50
330.9453959009203
 51
29.05460409907825
  0
ARC
  5
30F
330
1F
100
AcDbEntity
  8
0
  6
Continuous
 62
     7
100
AcDbCircle
 10
121.6773345774383
 20
84.3297438241743
 30
0.0
 40
3.0
100
AcDbArc
 50
270.0
 51
0.0
  0
ARC
  5
310
330
1F
100
AcDbEntity
  8
0
  6
Continuous
 62
     7
100
AcDbCircle
 10
61.60535512516117
 20
112.4297438241743
 30
0.0
 40
0.5000000000000904
100
AcDbArc
 50
330.9453959009174
 51
29.05460409907256
  0
ARC
  5
311
330
1F
100
AcDbEntity
  8
0
  6
Continuous
 62
     7
100
AcDbCircle
 10
61.60535512516117
 20
110.6297438241743
 30
0.0
 40
0.5000000000000904
100
AcDbArc
 50
330.9453959009174
 51
29.05460409907256
  0
ARC
  5
312
330
1F
100
AcDbEntity
  8
0
  6
Continuous
 62
     7
100
AcDbCircle
 10
62.24931402971527
 20
107.9297438241743
 30
0.0
 40
0.4999999999999489
100
AcDbArc
 50
150.9453959009215
 51
209.0546040990884
  0
ARC
  5
313
330
1F
100
AcDbEntity
  8
0
  6
Continuous
 62
     7
100
AcDbCircle
 10
61.60535512516117
 20
107.0297438241743
 30
0.0
 40
0.5000000000000421
100
AcDbArc
 50
330.9453959009275
 51
29.05460409907256
  0
ARC
  5
314
330
1F
100
AcDbEntity
  8
0
  6
Continuous
 62
     7
100
AcDbCircle
 10
62.17733457743827
 20
106.0001808100756
 30
0.0
 40
0.5000000000000421
100
AcDbArc
 50
150.9453959009275
 51
180.0
  0
ARC
  5
315
330
1F
100
AcDbEntity
  8
0
  6
Continuous
 62
     7
100
AcDbCircle
 10
62.24931402971527
 20
111.5297438241743
 30
0.0
 40
0.4999999999999489
100
AcDbArc
 50
150.9453959009215
 51
209.0546040990785
  0
ARC
  5
316
330
1F
100
AcDbEntity
  8
0
  6
Continuous
 62
     7
100
AcDbCircle
 10
62.24931402971527
 20
109.7297438241743
 30
0.0
 40
0.499999999999942
100
AcDbArc
 50
150.9453959009229
 51
209.0546040990884
  0
ARC
  5
317
330
1F
100
AcDbEntity
  8
0
  6
Continuous
 62
     7
100
AcDbCircle
 10
64.67733457743827
 20
84.32974382417427
 30
0.0
 40
3.0
100
AcDbArc
 50
180.0
 51
270.0
  0
ARC
  5
318
330
1F
100
AcDbEntity
  8
0
  6
Continuous
 62
     7
100
AcDbCircle
 10
61.60535512516117
 20
108.8297438241743
 30
0.0
 40
0.5000000000000421
100
AcDbArc
 50
330.9453959009275
 51
29.05460409907256
  0
ARC
  5
319
330
1F
100
AcDbEntity
  8
0
  6
Continuous
 62
     7
100
AcDbCircle
 10
80.17733457743827
 20
80.32974382417427
 30
0.0
 40
1.0
100
AcDbArc
 50
0.0
 51
90.0
  0
ARC
  5
31A
330
1F
100
AcDbEntity
  8
0
  6
Continuous
 62
     7
100
AcDbCircle
 10
82.17733457743827
 20
67.32974382417427
 30
0.0
 40
1.0
100
AcDbArc
 50
180.0
 51
270.0
  0
ARC
  5
31B
330
1F
100
AcDbEntity
  8
0
  6
Continuous
 62
     7
100
AcDbCircle
 10
228.7773347032663
 20
84.32974382417424
 30
0.0
 40
3.0
100
AcDbArc
 50
270.0
 51
288.9655749886832
  0
ARC
  5
31C
330
1F
100
AcDbEntity
  8
0
  6
Continuous
 62
     7
100
AcDbCircle
 10
231.2773347032663
 20
106.0001808100756
 30
0.0
 40
0.5
100
AcDbArc
 50
0.0
 51
29.05460409908521
  0
ARC
  5
31D
330
1F
100
AcDbEntity
  8
0
  6
Continuous
 62
     7
100
AcDbCircle
 10
231.205355250989
 20
107.9297438241743
 30
0.0
 40
0.5000000000001167
100
AcDbArc
 50
330.9453959009322
 51
29.05460409906782
  0
ARC
  5
31E
330
1F
100
AcDbEntity
  8
0
  6
Continuous
 62
     7
100
AcDbCircle
 10
231.8493141555433
 20
107.0297438241743
 30
0.0
 40
0.5000000000000421
100
AcDbArc
 50
150.9453959009275
 51
209.0546040990726
  0
ARC
  5
31F
330
1F
100
AcDbEntity
  8
0
  6
Continuous
 62
     7
100
AcDbCircle
 10
231.8493141555433
 20
108.8297438241743
 30
0.0
 40
0.5000000000000421
100
AcDbArc
 50
150.9453959009275
 51
209.0546040990726
  0
ARC
  5
320
330
1F
100
AcDbEntity
  8
0
  6
Continuous
 62
     7
100
AcDbCircle
 10
231.205355250989
 20
111.5297438241743
 30
0.0
 40
0.5000000000001167
100
AcDbArc
 50
330.9453959009322
 51
29.05460409906782
  0
ARC
  5
321
330
1F
100
AcDbEntity
  8
0
  6
Continuous
 62
     7
100
AcDbCircle
 10
231.205355250989
 20
109.7297438241743
 30
0.0
 40
0.5000000000001167
100
AcDbArc
 50
330.9453959009322
 51
29.05460409906639
  0
ARC
  5
322
330
1F
100
AcDbEntity
  8
0
  6
Continuous
 62
     7
100
AcDbCircle
 10
231.8493141555433
 20
112.4297438241743
 30
0.0
 40
0.5000000000000421
100
AcDbArc
 50
150.9453959009275
 51
209.0546040990726
  0
ARC
  5
323
330
1F
100
AcDbEntity
  8
0
  6
Continuous
 62
     7
100
AcDbCircle
 10
231.8493141555433
 20
110.6297438241743
 30
0.0
 40
0.5000000000000421
100
AcDbArc
 50
150.9453959009275
 51
209.0546040990726
  0
ARC
  5
324
330
1F
100
AcDbEntity
  8
0
  6
Continuous
 62
     7
100
AcDbCircle
 10
228.7773347032663
 20
84.32974382417424
 30
0.0
 40
3.000000000000005
100
AcDbArc
 50
288.9655749886832
 51
0.0
  0
ARC
  5
325
330
1F
100
AcDbEntity
  8
0
  6
Continuous
 62
     7
100
AcDbCircle
 10
202.9493141555432
 20
111.5297438241743
 30
0.0
 40
0.4999999999999179
100
AcDbArc
 50
150.9453959009195
 51
209.0546040990805
  0
ARC
  5
326
330
1F
100
AcDbEntity
  8
0
  6
Continuous
 62
     7
100
AcDbCircle
 10
202.9493141555432
 20
107.9297438241743
 30
0.0
 40
0.4999999999999179
100
AcDbArc
 50
150.9453959009195
 51
209.0546040990805
  0
ARC
  5
327
330
1F
100
AcDbEntity
  8
0
  6
Continuous
 62
     7
100
AcDbCircle
 10
202.9493141555432
 20
109.7297438241743
 30
0.0
 40
0.499999999999911
100
AcDbArc
 50
150.9453959009209
 51
209.0546040990805
  0
ARC
  5
328
330
1F
100
AcDbEntity
  8
0
  6
Continuous
 62
     7
100
AcDbCircle
 10
202.3053552509891
 20
107.0297438241743
 30
0.0
 40
0.4999999999999427
100
AcDbArc
 50
330.9453959009211
 51
29.05460409907889
  0
ARC
  5
329
330
1F
100
AcDbEntity
  8
0
  6
Continuous
 62
     7
100
AcDbCircle
 10
202.8773347032661
 20
106.0001808100756
 30
0.0
 40
0.4999999999998433
100
AcDbArc
 50
150.9453959009148
 51
180.0
  0
ARC
  5
32A
330
1F
100
AcDbEntity
  8
0
  6
Continuous
 62
     7
100
AcDbCircle
 10
202.3053552509891
 20
108.8297438241743
 30
0.0
 40
0.4999999999999427
100
AcDbArc
 50
330.9453959009211
 51
29.05460409907889
  0
ARC
  5
32B
330
1F
100
AcDbEntity
  8
0
  6
Continuous
 62
     7
100
AcDbCircle
 10
202.3053552509891
 20
110.6297438241743
 30
0.0
 40
0.4999999999999427
100
AcDbArc
 50
330.9453959009211
 51
29.05460409907889
  0
ARC
  5
32C
330
1F
100
AcDbEntity
  8
0
  6
Continuous
 62
     7
100
AcDbCircle
 10
202.3053552509891
 20
112.4297438241743
 30
0.0
 40
0.4999999999999427
100
AcDbArc
 50
330.9453959009211
 51
29.05460409907889
  0
ARC
  5
32D
330
1F
100
AcDbEntity
  8
0
  6
Continuous
 62
     7
100
AcDbCircle
 10
228.0773347032661
 20
67.32974382417424
 30
0.0
 40
1.0
100
AcDbArc
 50
270.0
 51
0.0
  0
ARC
  5
32E
330
1F
100
AcDbEntity
  8
0
  6
Continuous
 62
     7
100
AcDbCircle
 10
230.0773346884244
 20
80.54688777096965
 30
0.0
 40
0.9999999851581935
100
AcDbArc
 50
109.4620653254072
 51
180.0000006131336
  0
ARC
  5
32F
330
1F
100
AcDbEntity
  8
0
  6
Continuous
 62
     7
100
AcDbCircle
 10
205.3773347032661
 20
84.32974382417424
 30
0.0
 40
3.0
100
AcDbArc
 50
180.0
 51
251.0344250113145
  0
ARC
  5
330
330
1F
100
AcDbEntity
  8
0
  6
Continuous
 62
     7
100
AcDbCircle
 10
239.0773350575346
 20
135.8297438241695
 30
0.0
 40
7.0000000000001
100
AcDbArc
 50
73.99999999999336
 51
81.99999999999419
  0
ARC
  5
331
330
1F
100
AcDbEntity
  8
0
  6
Continuous
 62
     7
100
AcDbCircle
 10
239.0773350575346
 20
135.8297438241695
 30
0.0
 40
6.900000000000157
100
AcDbArc
 50
81.99999999999402
 51
83.4261147502539
  0
ARC
  5
332
330
1F
100
AcDbEntity
  8
0
  6
Continuous
 62
     7
100
AcDbCircle
 10
239.0773350575325
 20
135.8297438241703
 30
0.0
 40
6.900000000000311
100
AcDbArc
 50
65.99999999997499
 51
73.99999999997547
  0
ARC
  5
333
330
1F
100
AcDbEntity
  8
0
  6
Continuous
 62
     7
100
AcDbCircle
 10
239.0773350575346
 20
135.8297438241695
 30
0.0
 40
7.0
100
AcDbArc
 50
57.9999999999803
 51
65.9999999999942
  0
ARC
  5
334
330
1F
100
AcDbEntity
  8
0
  6
Continuous
 62
     7
100
AcDbCircle
 10
239.0773350575346
 20
135.8297438241695
 30
0.0
 40
6.900000000000204
100
AcDbArc
 50
49.99999999999082
 51
57.99999999999376
  0
ARC
  5
335
330
1F
100
AcDbEntity
  8
0
  6
Continuous
 62
     7
100
AcDbCircle
 10
239.0773350575346
 20
135.8297438241695
 30
0.0
 40
6.900000000000027
100
AcDbArc
 50
33.99999999999427
 51
41.9999999999938
  0
ARC
  5
336
330
1F
100
AcDbEntity
  8
0
  6
Continuous
 62
     7
100
AcDbCircle
 10
239.0773350575346
 20
135.8297438241695
 30
0.0
 40
7.000000000000016
100
AcDbArc
 50
25.99999999999418
 51
33.99999999999468
  0
ARC
  5
337
330
1F
100
AcDbEntity
  8
0
  6
Continuous
 62
     7
100
AcDbCircle
 10
239.0773350575346
 20
135.8297438241695
 30
0.0
 40
6.900000000000118
100
AcDbArc
 50
17.99999999999409
 51
25.99999999999477
  0
ARC
  5
338
330
1F
100
AcDbEntity
  8
0
  6
Continuous
 62
     7
100
AcDbCircle
 10
239.0773350575346
 20
135.8297438241695
 30
0.0
 40
6.999999999999997
100
AcDbArc
 50
9.99999999999405
 51
17.9999999999945
  0
ARC
  5
339
330
1F
100
AcDbEntity
  8
0
  6
Continuous
 62
     7
100
AcDbCircle
 10
239.0773350575346
 20
135.8297438241695
 30
0.0
 40
6.99999999999995
100
AcDbArc
 50
353.999999999994
 51
1.99999999999434
  0
ARC
  5
33A
330
1F
100
AcDbEntity
  8
0
  6
Continuous
 62
     7
100
AcDbCircle
 10
239.0773350575346
 20
135.8297438241695
 30
0.0
 40
6.899999999999998
100
AcDbArc
 50
1.99999999999458
 51
9.99999999999379
  0
ARC
  5
33B
330
1F
100
AcDbEntity
  8
0
  6
Continuous
 62
     7
100
AcDbCircle
 10
239.0773350575346
 20
135.8297438241695
 30
0.0
 40
6.999999999999983
100
AcDbArc
 50
321.9999999999939
 51
329.9999999999938
  0
ARC
  5
33C
330
1F
100
AcDbEntity
  8
0
  6
Continuous
 62
     7
100
AcDbCircle
 10
239.0773350575346
 20
135.8297438241695
 30
0.0
 40
6.90000000000007
100
AcDbArc
 50
281.9999999999935
 51
289.9999999999937
  0
ARC
  5
33D
330
1F
100
AcDbEntity
  8
0
  6
Continuous
 62
     7
100
AcDbCircle
 10
239.0773350575346
 20
135.8297438241695
 30
0.0
 40
6.999999999999974
100
AcDbArc
 50
273.9999999999928
 51
281.9999999999939
  0
ARC
  5
33E
330
1F
100
AcDbEntity
  8
0
  6
Continuous
 62
     7
100
AcDbCircle
 10
239.0773350575346
 20
135.8297438241695
 30
0.0
 40
6.899999999999933
100
AcDbArc
 50
273.7809280824266
 51
273.9999999999936
  0
ARC
  5
33F
330
1F
100
AcDbEntity
  8
0
  6
Continuous
 62
     7
100
AcDbCircle
 10
239.0773350575346
 20
135.8297438241695
 30
0.0
 40
6.900000000000178
100
AcDbArc
 50
313.9999999999942
 51
321.9999999999944
  0
ARC
  5
340
330
1F
100
AcDbEntity
  8
0
  6
Continuous
 62
     7
100
AcDbCircle
 10
239.0773350575346
 20
135.8297438241695
 30
0.0
 40
7.000000000000056
100
AcDbArc
 50
289.999999999993
 51
297.9999999999942
  0
ARC
  5
341
330
1F
100
AcDbEntity
  8
0
  6
Continuous
 62
     7
100
AcDbCircle
 10
239.0773350575346
 20
135.8297438241695
 30
0.0
 40
6.899999999999914
100
AcDbArc
 50
329.999999999994
 51
337.9999999999941
  0
ARC
  5
342
330
1F
100
AcDbEntity
  8
0
  6
Continuous
 62
     7
100
AcDbCircle
 10
239.0773350575346
 20
135.8297438241695
 30
0.0
 40
6.899999999999998
100
AcDbArc
 50
345.999999999994
 51
353.9999999999943
  0
ARC
  5
343
330
1F
100
AcDbEntity
  8
0
  6
Continuous
 62
     7
100
AcDbCircle
 10
239.0773350575346
 20
135.8297438241695
 30
0.0
 40
7.000000000000074
100
AcDbArc
 50
337.9999999999939
 51
345.9999999999939
  0
ARC
  5
344
330
1F
100
AcDbEntity
  8
0
  6
Continuous
 62
     7
100
AcDbCircle
 10
239.0773350575346
 20
135.8297438241695
 30
0.0
 40
6.899999999999913
100
AcDbArc
 50
297.9999999999934
 51
305.9999999999932
  0
ARC
  5
345
330
1F
100
AcDbEntity
  8
0
  6
Continuous
 62
     7
100
AcDbCircle
 10
239.0773350575346
 20
135.8297438241695
 30
0.0
 40
7.000000000000017
100
AcDbArc
 50
305.9999999999937
 51
313.9999999999935
  0
ARC
  5
346
330
1F
100
AcDbEntity
  8
0
  6
Continuous
 62
     7
100
AcDbCircle
 10
239.0773350575346
 20
135.8297438241695
 30
0.0
 40
6.899999999999892
100
AcDbArc
 50
269.9999999999898
 51
273.7809280824266
  0
ARC
  5
347
330
1F
100
AcDbEntity
  8
0
  6
Continuous
 62
     7
100
AcDbCircle
 10
239.0773350575346
 20
135.8297438241695
 30
0.0
 40
7.000000000000055
100
AcDbArc
 50
41.999999999994
 51
49.99999999999383
  0
ARC
  5
348
330
1F
100
AcDbEntity
  8
0
  6
Continuous
 62
     7
100
AcDbCircle
 10
215.2863431721468
 20
135.4297438241743
 30
0.0
 40
0.5
100
AcDbArc
 50
270.0
 51
0.0
  0
ARC
  5
349
330
1F
100
AcDbEntity
  8
0
  6
Continuous
 62
     7
100
AcDbCircle
 10
219.7863431721468
 20
135.6297438241717
 30
0.0
 40
4.0
100
AcDbArc
 50
90.0
 51
180.0
  0
ARC
  5
34A
330
1F
100
AcDbEntity
  8
0
  6
Continuous
 62
     7
100
AcDbCircle
 10
217.0773350575333
 20
117.1297438241737
 30
0.0
 40
6.700000000000261
100
AcDbArc
 50
282.9370588708122
 51
313.0000000000002
  0
ARC
  5
34B
330
1F
100
AcDbEntity
  8
0
  6
Continuous
 62
     7
100
AcDbCircle
 10
217.0773350575333
 20
117.1297438241737
 30
0.0
 40
4.800000000000061
100
AcDbArc
 50
60.10281278598493
 51
340.6541490107047
  0
ARC
  5
34C
330
1F
100
AcDbEntity
  8
0
  6
Continuous
 62
     7
100
AcDbCircle
 10
220.4667622892275
 20
123.0248081190776
 30
0.0
 40
2.00000000000001
100
AcDbArc
 50
240.1028127859843
 51
312.999999999991
  0
ARC
  5
34D
330
1F
100
AcDbEntity
  8
0
  6
Continuous
 62
     7
100
AcDbCircle
 10
217.077335057535
 20
117.1297438241706
 30
0.0
 40
6.699999999996798
100
AcDbArc
 50
133.0000000000426
 51
282.9370588708039
  0
ARC
  5
34E
330
1F
100
AcDbEntity
  8
0
  6
Continuous
 62
     7
100
AcDbCircle
 10
222.5773350575334
 20
130.8297438241689
 30
0.0
 40
5.5
100
AcDbArc
 50
0.0
 51
90.0
  0
ARC
  5
34F
330
1F
100
AcDbEntity
  8
0
  6
Continuous
 62
     7
100
AcDbCircle
 10
223.4933809116847
 20
114.8771107876084
 30
0.0
 40
2.000000000000074
100
AcDbArc
 50
132.9999999999832
 51
160.6541490107012
  0
ARC
  5
350
330
1F
100
AcDbEntity
  8
0
  6
Continuous
 62
     7
100
AcDbCircle
 10
217.0773350575356
 20
133.4297438241743
 30
0.0
 40
1.5
100
AcDbArc
 50
0.0
 51
90.0
  0
ARC
  5
351
330
1F
100
AcDbEntity
  8
0
  6
Continuous
 62
     7
100
AcDbCircle
 10
215.0773350575357
 20
139.0297438241748
 30
0.0
 40
4.499999999999964
100
AcDbArc
 50
203.5781784785145
 51
227.4649206658568
  0
ARC
  5
352
330
1F
100
AcDbEntity
  8
0
  6
Continuous
 62
     7
100
AcDbCircle
 10
214.6190774880413
 20
138.8297438241723
 30
0.0
 40
4.0
100
AcDbArc
 50
90.0
 51
203.578178478514
  0
ARC
  5
353
330
1F
100
AcDbEntity
  8
0
  6
Continuous
 62
     7
100
AcDbCircle
 10
214.0632728391465
 20
137.9244484712326
 30
0.0
 40
2.999999999999957
100
AcDbArc
 50
227.4649206658564
 51
266.5952254413314
  0
ARC
  5
354
330
1F
100
AcDbEntity
  8
0
  6
Continuous
 62
     7
100
AcDbCircle
 10
219.5773350575356
 20
135.3297438241689
 30
0.0
 40
1.0
100
AcDbArc
 50
90.0
 51
180.0
  0
ARC
  5
355
330
1F
100
AcDbEntity
  8
0
  6
Continuous
 62
     7
100
AcDbCircle
 10
221.9773350575334
 20
129.5297438241703
 30
0.0
 40
10.10000000000001
100
AcDbArc
 50
346.5475259253989
 51
90.0
  0
ARC
  5
356
330
1F
100
AcDbEntity
  8
0
  6
Continuous
 62
     7
100
AcDbCircle
 10
223.0773350575334
 20
129.5611889922779
 30
0.0
 40
5.000000000000058
100
AcDbArc
 50
312.999999999995
 51
0.0
  0
ARC
  5
357
330
1F
100
AcDbEntity
  8
0
  6
Continuous
 62
     7
100
AcDbCircle
 10
224.0197178300858
 20
129.0412025153929
 30
0.0
 40
7.999999999999874
100
AcDbArc
 50
312.9999999999932
 51
346.5475259253984
  0
ARC
  5
358
330
1F
100
AcDbEntity
  8
0
  6
Continuous
 62
     7
100
AcDbCircle
 10
204.0773347181072
 20
80.54688777096916
 30
0.0
 40
0.999999985158894
100
AcDbArc
 50
359.999999386894
 51
70.53793467340586
  0
ARC
  5
359
330
1F
100
AcDbEntity
  8
0
  6
Continuous
 62
     7
100
AcDbCircle
 10
85.97733411068259
 20
131.8797438241868
 30
0.0
 40
0.3000000000154159
100
AcDbArc
 50
180.0000000029366
 51
270.0000000029312
  0
ARC
  5
35A
330
1F
100
AcDbEntity
  8
0
  6
Continuous
 62
     7
100
AcDbCircle
 10
93.17733411070157
 20
132.1547438241708
 30
0.0
 40
0.200000000001949
100
AcDbArc
 50
240.2480640645912
 51
299.7524870752378
  0
ARC
  5
35B
330
1F
100
AcDbEntity
  8
0
  6
Continuous
 62
     7
100
AcDbCircle
 10
95.57733411069768
 20
134.9547438241707
 30
0.0
 40
0.1999999999997897
100
AcDbArc
 50
270.0
 51
90.0
  0
ARC
  5
35C
330
1F
100
AcDbEntity
  8
0
  6
Continuous
 62
     7
100
AcDbCircle
 10
98.27733411069767
 20
134.9547438241684
 30
0.0
 40
0.1000000000017227
100
AcDbArc
 50
299.7524870765083
 51
60.24751292494204
  0
ARC
  5
35D
330
1F
100
AcDbEntity
  8
0
  6
Continuous
 62
     7
100
AcDbCircle
 10
93.97733411069771
 20
133.1879468099299
 30
0.0
 40
0.2000000000003297
100
AcDbArc
 50
180.0000000006595
 51
0.00000000062695
  0
ARC
  5
35E
330
1F
100
AcDbEntity
  8
0
  6
Continuous
 62
     7
100
AcDbCircle
 10
94.77733411069767
 20
133.6452305509522
 30
0.0
 40
0.1999999999999886
100
AcDbArc
 50
180.000000000114
 51
299.9816393662334
  0
ARC
  5
35F
330
1F
100
AcDbEntity
  8
0
  6
Continuous
 62
     7
100
AcDbCircle
 10
95.57733411027289
 20
134.1024804961624
 30
0.0
 40
0.2000000000000263
100
AcDbArc
 50
299.9816395084714
 51
119.9816395084692
  0
ARC
  5
360
330
1F
100
AcDbEntity
  8
0
  6
Continuous
 62
     7
100
AcDbCircle
 10
92.3773341106965
 20
136.7215408384011
 30
0.0
 40
0.1999999999987975
100
AcDbArc
 50
29.99999999986795
 51
179.9999999999104
  0
ARC
  5
361
330
1F
100
AcDbEntity
  8
0
  6
Continuous
 62
     7
100
AcDbCircle
 10
90.77733411069767
 20
135.8070071519341
 30
0.0
 40
0.2000000000000455
100
AcDbArc
 50
0.0
 51
180.0
  0
ARC
  5
362
330
1F
100
AcDbEntity
  8
0
  6
Continuous
 62
     7
100
AcDbCircle
 10
91.57733411069768
 20
136.2685456134725
 30
0.0
 40
0.1999999999999886
100
AcDbArc
 50
0.0
 51
179.9999999995685
  0
ARC
  5
363
330
1F
100
AcDbEntity
  8
0
  6
Continuous
 62
     7
100
AcDbCircle
 10
93.17733411070157
 20
137.7547438241674
 30
0.0
 40
0.2000000000009663
100
AcDbArc
 50
60.24751292524287
 51
119.7519359350573
  0
ARC
  5
364
330
1F
100
AcDbEntity
  8
0
  6
Continuous
 62
     7
100
AcDbCircle
 10
93.17733411069764
 20
135.1359001923462
 30
0.0
 40
0.0999999999999821
100
AcDbArc
 50
210.0000000000886
 51
330.0000000001153
  0
ARC
  5
365
330
1F
100
AcDbEntity
  8
0
  6
Continuous
 62
     7
100
AcDbCircle
 10
92.37733411069769
 20
134.1024804964063
 30
0.0
 40
0.2000000000003297
100
AcDbArc
 50
180.0
 51
0.0
  0
ARC
  5
366
330
1F
100
AcDbEntity
  8
0
  6
Continuous
 62
     7
100
AcDbCircle
 10
90.77733411069767
 20
134.1024804964063
 30
0.0
 40
0.2000000000002728
100
AcDbArc
 50
179.9999999999104
 51
0.0
  0
ARC
  5
367
330
1F
100
AcDbEntity
  8
0
  6
Continuous
 62
     7
100
AcDbCircle
 10
91.77733411069767
 20
133.7612513108673
 30
0.0
 40
0.3999999999999773
100
AcDbArc
 50
180.0000000000407
 51
240.0183606310581
  0
ARC
  5
368
330
1F
100
AcDbEntity
  8
0
  6
Continuous
 62
     7
100
AcDbCircle
 10
92.97733411068788
 20
132.8449764338777
 30
0.0
 40
0.1999999999999297
100
AcDbArc
 50
240.0183606348452
 51
60.01836063481697
  0
ARC
  5
369
330
1F
100
AcDbEntity
  8
0
  6
Continuous
 62
     7
100
AcDbCircle
 10
88.07744519096173
 20
134.9547438241684
 30
0.0
 40
0.1001110802621554
100
AcDbArc
 50
119.7519359337696
 51
240.2480640649229
  0
ARC
  5
36A
330
1F
100
AcDbEntity
  8
0
  6
Continuous
 62
     7
100
AcDbCircle
 10
93.97733411069771
 20
136.7215408384014
 30
0.0
 40
0.1999999999999318
100
AcDbArc
 50
0.0
 51
150.0000001034203
  0
ARC
  5
36B
330
1F
100
AcDbEntity
  8
0
  6
Continuous
 62
     7
100
AcDbCircle
 10
95.57733411111928
 20
135.806973356134
 30
0.0
 40
0.1999999999999013
100
AcDbArc
 50
240.018360773191
 51
60.01836077317903
  0
ARC
  5
36C
330
1F
100
AcDbEntity
  8
0
  6
Continuous
 62
     7
100
AcDbCircle
 10
94.77733411069767
 20
136.2642570973892
 30
0.0
 40
0.20000000000021
100
AcDbArc
 50
60.01836063081187
 51
180.0
  0
ARC
  5
36D
330
1F
100
AcDbEntity
  8
0
  6
Continuous
 62
     7
100
AcDbCircle
 10
100.3773341106979
 20
131.8797438241715
 30
0.0
 40
0.3000000000000114
100
AcDbArc
 50
270.0
 51
0.0
  0
ARC
  5
36E
330
1F
100
AcDbEntity
  8
1
  6
DASHED
 62
     7
100
AcDbCircle
 10
217.0773350575333
 20
117.1297438241737
 30
0.0
 40
38.02985478255785
100
AcDbArc
 50
350.8496906002918
 51
0.00000000000015
  0
ARC
  5
36F
330
1F
100
AcDbEntity
  8
1
  6
DASHED
 62
     7
100
AcDbCircle
 10
217.0773350575333
 20
117.1297438241737
 30
0.0
 40
38.02985478255781
100
AcDbArc
 50
0.00000000000015
 51
57.99999999999985
  0
ARC
  5
370
330
1F
100
AcDbEntity
  8
0
  6
Continuous
 62
     7
100
AcDbCircle
 10
246.5773350575349
 20
140.3297438241691
 30
0.0
 40
0.5
100
AcDbArc
 50
359.9999999999642
 51
90.0
  0
ARC
  5
371
330
1F
100
AcDbEntity
  8
0
  6
Continuous
 62
     7
100
AcDbCircle
 10
246.5773350575349
 20
138.8297438241691
 30
0.0
 40
0.5
100
AcDbArc
 50
270.0
 51
0.0
  0
ARC
  5
372
102
{ACAD_REACTORS
330
41B
102
}
330
1F
100
AcDbEntity
  8
1
  6
Continuous
 62
     7
100
AcDbCircle
 10
277.2746002345513
 20
15.73121731203457
 30
0.0
 40
0.2649662124752854
100
AcDbArc
 50
30.00000000001921
 51
180.0
  0
ARC
  5
373
102
{ACAD_REACTORS
330
41B
102
}
330
1F
100
AcDbEntity
  8
1
  6
Continuous
 62
     7
100
AcDbCircle
 10
277.3429673554093
 20
10.84758507263291
 30
0.0
 40
0.3333333333334281
100
AcDbArc
 50
180.0
 51
0.0
  0
ARC
  5
374
102
{ACAD_REACTORS
330
41B
102
}
330
1F
100
AcDbEntity
  8
1
  6
Continuous
 62
     7
100
AcDbCircle
 10
280.0096340220761
 20
9.3082690706018
 30
0.0
 40
0.3333333333334281
100
AcDbArc
 50
180.0
 51
0.0
  0
ARC
  5
375
102
{ACAD_REACTORS
330
41B
102
}
330
1F
100
AcDbEntity
  8
1
  6
Continuous
 62
     7
100
AcDbCircle
 10
280.078001142934
 20
15.73121731203457
 30
0.0
 40
0.2649662124753149
100
AcDbArc
 50
0.0
 51
149.9999999999685
  0
ARC
  5
376
102
{ACAD_REACTORS
330
41C
102
}
330
1F
100
AcDbEntity
  8
1
  6
Continuous
 62
     7
100
AcDbCircle
 10
276.0096340220759
 20
14.92250016016737
 30
0.0
 40
0.3333333333334281
100
AcDbArc
 50
0.0
 51
180.0
  0
ARC
  5
377
102
{ACAD_REACTORS
330
41C
102
}
330
1F
100
AcDbEntity
  8
1
  6
Continuous
 62
     7
100
AcDbCircle
 10
278.3429673554093
 20
8.7313459936787
 30
0.0
 40
0.3333333333333709
100
AcDbArc
 50
240.0183606311493
 51
60.01836063115783
  0
ARC
  5
378
102
{ACAD_REACTORS
330
41D
102
}
330
1F
100
AcDbEntity
  8
1
  6
Continuous
 62
     7
100
AcDbCircle
 10
274.6763006887427
 20
14.15326939093666
 30
0.0
 40
0.3333333333332007
100
AcDbArc
 50
0.0
 51
180.0
  0
ARC
  5
379
102
{ACAD_REACTORS
330
41D
102
}
330
1F
100
AcDbEntity
  8
1
  6
Continuous
 62
     7
100
AcDbCircle
 10
274.6763006887427
 20
10.84673060906323
 30
0.0
 40
0.3333333333333712
100
AcDbArc
 50
180.0
 51
0.0
  0
ARC
  5
37A
102
{ACAD_REACTORS
330
41E
102
}
330
1F
100
AcDbEntity
  8
1
  6
Continuous
 62
     7
100
AcDbCircle
 10
282.6763006887427
 20
14.15326939093666
 30
0.0
 40
0.3333333333333471
100
AcDbArc
 50
240.0183606311583
 51
60.01836063115638
  0
ARC
  5
37B
102
{ACAD_REACTORS
330
41E
102
}
330
1F
100
AcDbEntity
  8
1
  6
Continuous
 62
     7
100
AcDbCircle
 10
282.6763006887427
 20
12.5
 30
0.0
 40
0.3333333333333695
100
AcDbArc
 50
270.0
 51
90.0
  0
ARC
  5
37C
102
{ACAD_REACTORS
330
41E
102
}
330
1F
100
AcDbEntity
  8
1
  6
Continuous
 62
     7
100
AcDbCircle
 10
282.6763006887427
 20
10.84673060906323
 30
0.0
 40
0.3333333333333172
100
AcDbArc
 50
299.9816393688334
 51
119.9816393688323
  0
CIRCLE
  5
37D
330
1F
100
AcDbEntity
  8
0
  6
Continuous
 62
     7
100
AcDbCircle
 10
217.0773350575333
 20
117.1297438241737
 30
0.0
 40
2.400000000000006
  0
CIRCLE
  5
37E
330
1F
100
AcDbEntity
  8
0
  6
Continuous
 62
     7
100
AcDbCircle
 10
217.0773350575333
 20
117.1297438241737
 30
0.0
 40
2.500000000000017
  0
SPLINE
  5
37F
330
1F
100
AcDbEntity
  8
0
  6
Continuous
 62
     7
100
AcDbSpline
210
0.0
220
0.0
230
1.0
 70
     8
 71
     3
 72
    13
 73
     9
 74
     7
 42
0.000000001
 43
0.0000000001
 44
0.00000001
 40
0.0
 40
0.0
 40
0.0
 40
0.0
 40
0.730134067964971
 40
1.45406688218275
 40
2.167131057670229
 40
2.867435595252254
 40
3.556498904020896
 40
4.238987884024505
 40
4.238987884024505
 40
4.238987884024505
 40
4.238987884024505
 10
63.72733411069794
 20
125.2201789283537
 30
0.0
 10
63.48333163822598
 20
125.2029757646825
 30
0.0
 10
62.99739908329669
 20
125.1687155347416
 30
0.0
 10
62.31640369340512
 20
124.8968159770876
 30
0.0
 10
61.72885337939841
 20
124.4816413092619
 30
0.0
 10
61.27998536525772
 20
123.9344952981139
 30
0.0
 10
60.98366498997082
 20
123.2960406877349
 30
0.0
 10
60.94605096670601
 20
122.8373718347438
 30
0.0
 10
60.92733411069787
 20
122.6091366871683
 30
0.0
 11
63.72733411069794
 21
125.2201789283537
 31
0.0
 11
63.00264097761828
 21
125.1312091490617
 31
0.0
 11
62.3273341106979
 21
124.8703655983891
 31
0.0
 11
61.74743565122808
 21
124.4554218696446
 31
0.0
 11
61.3024629801015
 21
123.914657807761
 31
0.0
 11
61.02274251814842
 21
123.2849239665854
 31
0.0
 11
60.92733411069787
 21
122.6091366871683
 31
0.0
  0
SPLINE
  5
380
330
1F
100
AcDbEntity
  8
0
  6
Continuous
 62
     7
100
AcDbSpline
210
0.0
220
0.0
230
1.0
 70
     8
 71
     3
 72
    13
 73
     9
 74
     7
 42
0.000000001
 43
0.0000000001
 44
0.00000001
 40
0.0
 40
0.0
 40
0.0
 40
0.0
 40
0.6824889800036399
 40
1.371552288772254
 40
2.071856826354316
 40
2.784921001841822
 40
3.508853816059575
 40
4.238987884024588
 40
4.238987884024588
 40
4.238987884024588
 40
4.238987884024588
 10
125.427334110698
 20
122.6091366871683
 30
0.0
 10
125.4086172546899
 20
122.8373718347437
 30
0.0
 10
125.371003231425
 20
123.2960406877349
 30
0.0
 10
125.0746828561382
 20
123.9344952981139
 30
0.0
 10
124.6258148419974
 20
124.4816413092619
 30
0.0
 10
124.0382645279908
 20
124.8968159770877
 30
0.0
 10
123.3572691380991
 20
125.1687155347418
 30
0.0
 10
122.8713365831699
 20
125.2029757646827
 30
0.0
 10
122.6273341106979
 20
125.2201789283538
 30
0.0
 11
125.427334110698
 21
122.6091366871683
 31
0.0
 11
125.3319257032474
 21
123.2849239665854
 31
0.0
 11
125.0522052412944
 21
123.914657807761
 31
0.0
 11
124.6072325701678
 21
124.4554218696447
 31
0.0
 11
124.027334110698
 21
124.8703655983892
 31
0.0
 11
123.3520272437776
 21
125.1312091490618
 31
0.0
 11
122.6273341106979
 21
125.2201789283538
 31
0.0
  0
SPLINE
  5
381
330
1F
100
AcDbEntity
  8
0
  6
Continuous
 62
     7
100
AcDbSpline
210
0.0
220
0.0
230
1.0
 70
     8
 71
     3
 72
    15
 73
    11
 74
     9
 42
0.000000001
 43
0.0000000001
 44
0.00000001
 40
0.0
 40
0.0
 40
0.0
 40
0.0
 40
0.0010818682158461
 40
0.0021641107129361
 40
0.0032467270569931
 40
0.0043297168069043
 40
0.0054130795204512
 40
0.0064968147541988
 40
0.0075809220637306
 40
0.0086654010084891
 40
0.0086654010084891
 40
0.0086654010084891
 40
0.0086654010084891
 10
229.7523347032581
 20
81.49260177626476
 30
0.0
 10
229.751993693863
 20
81.49248446736722
 30
0.0
 10
229.7513115618647
 20
81.49224979514128
 30
0.0
 10
229.7502886617571
 20
81.49189634845808
 30
0.0
 10
229.7492657665198
 20
81.49154174511769
 30
0.0
 10
229.7482429103585
 20
81.4911858908852
 30
0.0
 10
229.7472200844946
 20
81.49082881640523
 30
0.0
 10
229.7461973019197
 20
81.49047048986893
 30
0.0
 10
229.7451745315432
 20
81.49011100442954
 30
0.0
 10
229.7444928918411
 20
81.48987038645852
 30
0.0
 10
229.7441520160188
 20
81.48975004995054
 30
0.0
 11
229.7523347032581
 21
81.49260177626476
 31
0.0
 11
229.7513117556566
 21
81.49224961571502
 31
0.0
 11
229.750288835941
 21
81.49189622626795
 31
0.0
 11
229.7492659461216
 21
81.49154160733265
 31
0.0
 11
229.7482430882115
 21
81.49118575832316
 31
0.0
 11
229.7472202642265
 21
81.49082867865658
 31
0.0
 11
229.7461974761849
 21
81.49047036775477
 31
0.0
 11
229.7451747261078
 21
81.49011082504279
 31
0.0
 11
229.7441520160188
 21
81.48975004995054
 31
0.0
  0
SPLINE
  5
382
330
1F
100
AcDbEntity
  8
0
  6
Continuous
 62
     7
100
AcDbSpline
210
0.0
220
0.0
230
1.0
 70
     8
 71
     3
 72
    23
 73
    19
 74
    17
 42
0.000000001
 43
0.0000000001
 44
0.00000001
 40
0.0
 40
0.0
 40
0.0
 40
0.0
 40
0.1089731749941849
 40
0.2003767379988015
 40
0.3005353298991402
 40
0.4009341760392761
 40
0.5010092137333731
 40
0.6014435939489866
 40
0.6928820013736252
 40
0.8019241267778614
 40
0.9019806765594669
 40
1.002464162728033
 40
1.094096097287077
 40
1.203000915191232
 40
1.294689389872313
 40
1.403455620914958
 40
1.512149209424853
 40
1.604217282937004
 40
1.604217282937004
 40
1.604217282937004
 40
1.604217282937004
 10
205.0773347032661
 20
67.32974382417424
 30
0.0
 10
205.0785106650044
 20
67.29339827095502
 30
0.0
 10
205.0806730032373
 20
67.2265671144794
 30
0.0
 10
205.097298248869
 20
67.12753780673047
 30
0.0
 10
205.1221827432245
 20
67.03331117441624
 30
0.0
 10
205.1578749259068
 20
66.93946617848539
 30
0.0
 10
205.2029616203468
 20
66.84968072793517
 30
0.0
 10
205.2553316885495
 20
66.76745342827823
 30
0.0
 10
205.3171713564728
 20
66.6883128345184
 30
0.0
 10
205.3865338661751
 20
66.61574909112778
 30
0.0
 10
205.46521984991
 20
66.54874022012393
 30
0.0
 10
205.5452716842608
 20
66.49299771565194
 30
0.0
 10
205.6326366316741
 20
66.44340245546888
 30
0.0
 10
205.7216959665387
 20
66.40350610581476
 30
0.0
 10
205.8194525052642
 20
66.37028523805054
 30
0.0
 10
205.9198643287922
 20
66.34647949674608
 30
0.0
 10
206.0222886927184
 20
66.33214186215483
 30
0.0
 10
206.0892273271899
 20
66.33049778215508
 30
0.0
 10
206.1199249769167
 20
66.32974382417424
 30
0.0
 11
205.0773347032661
 21
67.32974382417424
 31
0.0
 11
205.0835014717859
 21
67.22094527507687
 31
0.0
 11
205.0981185406865
 21
67.13071804580196
 31
0.0
 11
205.1238374732162
 21
67.03391783769142
 31
0.0
 11
205.1594776739169
 21
66.94005781107595
 31
0.0
 11
205.2043835423059
 21
66.85062361003985
 31
0.0
 11
205.2583187691933
 21
66.76590020022465
 31
0.0
 11
205.3146083881216
 21
66.69384146544476
 31
0.0
 11
205.3899367788442
 21
66.61500100119375
 31
0.0
 11
205.4661008008163
 21
66.55011375265923
 31
0.0
 11
205.548550461875
 21
66.49267696571826
 31
0.0
 11
205.6282320263759
 21
66.44743031056916
 31
0.0
 11
205.7276070746063
 21
66.40287855087325
 31
0.0
 11
205.8144252561444
 21
66.37339330281497
 31
0.0
 11
205.9202199661988
 21
66.34814310424215
 31
0.0
 11
206.0279383530339
 21
66.33361569630041
 31
0.0
 11
206.1199249769167
 21
66.32974382417424
 31
0.0
  0
SPLINE
  5
383
330
1F
100
AcDbEntity
  8
0
  6
Continuous
 62
     7
100
AcDbSpline
210
0.0
220
0.0
230
1.0
 70
     8
 71
     3
 72
    15
 73
    11
 74
     9
 42
0.000000001
 43
0.0000000001
 44
0.00000001
 40
0.0
 40
0.0
 40
0.0
 40
0.0
 40
0.0010844789474718
 40
0.0021685862594583
 40
0.0032523214957362
 40
0.0043356842117691
 40
0.0054186739642376
 40
0.0065012903107268
 40
0.0075835328103731
 40
0.0086654010287662
 40
0.0086654010287662
 40
0.0086654010287662
 40
0.0086654010287662
 10
204.4105173905326
 20
81.48975004994386
 30
0.0
 10
204.4101765147094
 20
81.48987038645211
 30
0.0
 10
204.4094948750057
 20
81.49011100442361
 30
0.0
 10
204.4084721046269
 20
81.49047048986395
 30
0.0
 10
204.4074493220494
 20
81.49082881640105
 30
0.0
 10
204.4064264961833
 20
81.49118589088194
 30
0.0
 10
204.4054036400196
 20
81.49154174511514
 30
0.0
 10
204.40438074478
 20
81.49189634845655
 30
0.0
 10
204.4033578446699
 20
81.49224979514042
 30
0.0
 10
204.4026757126701
 20
81.49248446736686
 30
0.0
 10
204.4023347032741
 20
81.49260177626465
 30
0.0
 11
204.4105173905326
 21
81.48975004994386
 31
0.0
 11
204.409494680441
 21
81.49011082503694
 31
0.0
 11
204.4084719303616
 21
81.49047036774977
 31
0.0
 11
204.4074491423176
 21
81.49082867865242
 31
0.0
 11
204.4064263183303
 21
81.49118575831986
 31
0.0
 11
204.4054034604177
 21
81.49154160733019
 31
0.0
 11
204.4043805705961
 21
81.49189622626636
 31
0.0
 11
204.403357650878
 21
81.49224961571419
 31
0.0
 11
204.4023347032741
 21
81.49260177626465
 31
0.0
  0
SPLINE
  5
384
330
1F
100
AcDbEntity
  8
0
  6
Continuous
 62
     7
100
AcDbSpline
210
0.0
220
0.0
230
1.0
 70
     8
 71
     3
 72
    11
 73
     7
 74
     5
 42
0.000000001
 43
0.0000000001
 44
0.00000001
 40
0.0
 40
0.0
 40
0.0
 40
0.0
 40
0.112606774073351
 40
0.2241631912645813
 40
0.3337510563914964
 40
0.4407092467488685
 40
0.4407092467488685
 40
0.4407092467488685
 40
0.4407092467488685
 10
239.4602791849703
 20
142.8297438241723
 30
0.0
 10
239.4978747947165
 20
142.82792774686
 30
0.0
 10
239.5727153339677
 20
142.8243125171734
 30
0.0
 10
239.6806961763187
 20
142.7948297159724
 30
0.0
 10
239.7814430196949
 20
142.750219149475
 30
0.0
 10
239.8388983941184
 20
142.7061457590704
 30
0.0
 10
239.8672772161304
 20
142.6843766652541
 30
0.0
 11
239.4602791849703
 21
142.8297438241723
 31
0.0
 11
239.5724817181254
 21
142.8202108674062
 31
0.0
 11
239.6804057840884
 21
142.791975595333
 31
0.0
 11
239.7799360206416
 21
142.7461145812983
 31
0.0
 11
239.8672772161304
 21
142.6843766652541
 31
0.0
  0
SPLINE
  5
385
330
1F
100
AcDbEntity
  8
0
  6
Continuous
 62
     7
100
AcDbSpline
210
0.0
220
0.0
230
1.0
 70
     8
 71
     3
 72
     9
 73
     5
 74
     3
 42
0.000000001
 43
0.0000000001
 44
0.00000001
 40
0.0
 40
0.0
 40
0.0
 40
0.0
 40
0.0228116845153083
 40
0.0456253432567984
 40
0.0456253432567984
 40
0.0456253432567984
 40
0.0456253432567984
 10
126.7317439018966
 20
128.9465518773787
 30
0.0
 10
126.7393416935223
 20
128.9462472443632
 30
0.0
 10
126.754537935111
 20
128.9456379719522
 30
0.0
 10
126.7697351660459
 20
128.9450538972893
 30
0.0
 10
126.777334110698
 20
128.9447618573143
 30
0.0
 11
126.7317439018966
 21
128.9465518773787
 31
0.0
 11
126.7545375244866
 21
128.9456442872152
 31
0.0
 11
126.777334110698
 21
128.9447618573143
 31
0.0
  0
SPLINE
  5
386
330
1F
100
AcDbEntity
  8
0
  6
Continuous
 62
     7
100
AcDbSpline
210
0.0
220
0.0
230
1.0
 70
     8
 71
     3
 72
    11
 73
     7
 74
     5
 42
0.000000001
 43
0.0000000001
 44
0.00000001
 40
0.0
 40
0.0
 40
0.0
 40
0.0
 40
0.1798189527290047
 40
0.3557216451919373
 40
0.5294147391756181
 40
0.6991137350339878
 40
0.6991137350339878
 40
0.6991137350339878
 40
0.6991137350339878
 10
126.777334110698
 20
128.9447618573143
 30
0.0
 10
126.8372345343652
 20
128.9425840775681
 30
0.0
 10
126.9557308164439
 20
128.9382759626549
 30
0.0
 10
127.1321422283869
 20
128.933592614647
 30
0.0
 10
127.3052157771216
 20
128.9303877287149
 30
0.0
 10
127.4196804004664
 20
128.9299567832302
 30
0.0
 10
127.4762470257178
 20
128.9297438241715
 30
0.0
 11
126.777334110698
 21
128.9447618573143
 31
0.0
 11
126.9570448806192
 21
128.9385252768596
 31
0.0
 11
127.132884356799
 21
128.9338097849041
 31
0.0
 11
127.3065512856726
 21
128.9307950288953
 31
0.0
 11
127.4762470257178
 21
128.9297438241715
 31
0.0
  0
SPLINE
  5
387
330
1F
100
AcDbEntity
  8
0
  6
Continuous
 62
     7
100
AcDbSpline
210
0.0
220
0.0
230
1.0
 70
     8
 71
     3
 72
     9
 73
     5
 74
     3
 42
0.000000001
 43
0.0000000001
 44
0.00000001
 40
0.0
 40
0.0
 40
0.0
 40
0.0
 40
0.8431800229632103
 40
1.680898627533373
 40
1.680898627533373
 40
1.680898627533373
 40
1.680898627533373
 10
59.63500649516755
 20
128.8467954723526
 30
0.0
 10
59.9157834944338
 20
128.8609497581993
 30
0.0
 10
60.47551885184541
 20
128.8891666701525
 30
0.0
 10
61.03247581020511
 20
128.9515969102887
 30
0.0
 10
61.31004948228326
 20
128.9827106190346
 30
0.0
 11
59.63500649516755
 21
128.8467954723526
 31
0.0
 11
60.47663837160248
 21
128.8978673436444
 31
0.0
 11
61.31004948228326
 21
128.9827106190346
 31
0.0
  0
SPLINE
  5
388
330
1F
100
AcDbEntity
  8
0
  6
Continuous
 62
     7
100
AcDbSpline
210
0.0
220
0.0
230
1.0
 70
     8
 71
     3
 72
     9
 73
     5
 74
     3
 42
0.000000001
 43
0.0000000001
 44
0.00000001
 40
0.0
 40
0.0
 40
0.0
 40
0.0
 40
0.0228136584098271
 40
0.0456253429456971
 40
0.0456253429456971
 40
0.0456253429456971
 40
0.0456253429456971
 10
59.57733411100884
 20
128.9447618573261
 30
0.0
 10
59.58493305555044
 20
128.945053897297
 30
0.0
 10
59.6001302863818
 20
128.9456379719559
 30
0.0
 10
59.61532652786685
 20
128.9462472443629
 30
0.0
 10
59.62292431949936
 20
128.9465518773787
 30
0.0
 11
59.57733411100884
 21
128.9447618573261
 31
0.0
 11
59.60013069688886
 21
128.9456442872143
 31
0.0
 11
59.62292431949936
 21
128.9465518773787
 31
0.0
  0
SPLINE
  5
389
330
1F
100
AcDbEntity
  8
0
  6
Continuous
 62
     7
100
AcDbSpline
210
0.0
220
0.0
230
1.0
 70
     8
 71
     3
 72
    11
 73
     7
 74
     5
 42
0.000000001
 43
0.0000000001
 44
0.00000001
 40
0.0
 40
0.0
 40
0.0
 40
0.0
 40
0.1696989958054672
 40
0.3433920896858227
 40
0.5192947820669853
 40
0.6991137353429011
 40
0.6991137353429011
 40
0.6991137353429011
 40
0.6991137353429011
 10
58.87842119568035
 20
128.9297438241715
 30
0.0
 10
58.9349878209141
 20
128.9299567832301
 30
0.0
 10
59.04945244420682
 20
128.9303877287145
 30
0.0
 10
59.22252599286227
 20
128.9335926146438
 30
0.0
 10
59.39893740492582
 20
128.9382759626543
 30
0.0
 10
59.51743368715949
 20
128.9425840775732
 30
0.0
 10
59.57733411100884
 20
128.9447618573261
 30
0.0
 11
58.87842119568035
 21
128.9297438241715
 31
0.0
 11
59.04811693567261
 21
128.9307950288947
 31
0.0
 11
59.22178386444296
 21
128.9338097849007
 31
0.0
 11
59.3976233405411
 21
128.9385252768529
 31
0.0
 11
59.57733411100884
 21
128.9447618573261
 31
0.0
  0
SPLINE
  5
38A
330
1F
100
AcDbEntity
  8
0
  6
Continuous
 62
     7
100
AcDbSpline
210
0.0
220
0.0
230
1.0
 70
     8
 71
     3
 72
     9
 73
     5
 74
     3
 42
0.000000001
 43
0.0000000001
 44
0.00000001
 40
0.0
 40
0.0
 40
0.0
 40
0.0
 40
0.8177426022071097
 40
1.62493197154266
 40
1.62493197154266
 40
1.62493197154266
 40
1.62493197154266
 10
61.27403812108486
 20
129.080525379108
 30
0.0
 10
61.54431411861262
 20
129.1164894484903
 30
0.0
 10
62.08137811140785
 20
129.1879534790601
 30
0.0
 10
62.61280211492495
 20
129.2934560448981
 30
0.0
 10
62.87678843001504
 20
129.3458647407483
 30
0.0
 11
61.27403812108486
 21
129.080525379108
 31
0.0
 11
62.08343774077936
 21
129.1970381228321
 31
0.0
 11
62.87678843001504
 21
129.3458647407483
 31
0.0
  0
SPLINE
  5
38B
330
1F
100
AcDbEntity
  8
0
  6
Continuous
 62
     7
100
AcDbSpline
210
0.0
220
0.0
230
1.0
 70
     8
 71
     3
 72
     9
 73
     5
 74
     3
 42
0.000000001
 43
0.0000000001
 44
0.00000001
 40
0.0
 40
0.0
 40
0.0
 40
0.0
 40
0.8071893693355526
 40
1.624931971542674
 40
1.624931971542674
 40
1.624931971542674
 40
1.624931971542674
 10
123.477879791381
 20
129.3458647407483
 30
0.0
 10
123.7418661064711
 20
129.2934560448981
 30
0.0
 10
124.2732901099882
 20
129.1879534790602
 30
0.0
 10
124.8103541027834
 20
129.1164894484903
 30
0.0
 10
125.0806301003112
 20
129.080525379108
 30
0.0
 11
123.477879791381
 21
129.3458647407483
 31
0.0
 11
124.2712304806167
 21
129.1970381228321
 31
0.0
 11
125.0806301003112
 21
129.080525379108
 31
0.0
  0
SPLINE
  5
38C
330
1F
100
AcDbEntity
  8
0
  6
Continuous
 62
     7
100
AcDbSpline
210
0.0
220
0.0
230
1.0
 70
     8
 71
     3
 72
     9
 73
     5
 74
     3
 42
0.000000001
 43
0.0000000001
 44
0.00000001
 40
0.0
 40
0.0
 40
0.0
 40
0.0
 40
0.83771860457017
 40
1.680898627533352
 40
1.680898627533352
 40
1.680898627533352
 40
1.680898627533352
 10
125.0446187391128
 20
128.9827106190346
 30
0.0
 10
125.322192411191
 20
128.9515969102887
 30
0.0
 10
125.8791493695507
 20
128.8891666701525
 30
0.0
 10
126.4388847269622
 20
128.8609497581993
 30
0.0
 10
126.7196617262285
 20
128.8467954723526
 30
0.0
 11
125.0446187391128
 21
128.9827106190346
 31
0.0
 11
125.8780298497936
 21
128.8978673436444
 31
0.0
 11
126.7196617262285
 21
128.8467954723526
 31
0.0
  0
SPLINE
  5
38D
330
1F
100
AcDbEntity
  8
0
  6
Continuous
 62
     7
100
AcDbSpline
210
0.0
220
0.0
230
1.0
 70
     8
 71
     3
 72
     9
 73
     5
 74
     3
 42
0.000000001
 43
0.0000000001
 44
0.00000001
 40
0.0
 40
0.0
 40
0.0
 40
0.0
 40
0.7902017143973085
 40
1.595912057489742
 40
1.595912057489742
 40
1.595912057489742
 40
1.595912057489742
 10
121.8733738268226
 20
129.6491106741586
 30
0.0
 10
122.1261776942636
 20
129.5748539102547
 30
0.0
 10
122.6367470045945
 20
129.4248830262999
 30
0.0
 10
123.1563260682954
 20
129.3099303473792
 30
0.0
 10
123.4186401648357
 20
129.2518954786695
 30
0.0
 11
121.8733738268226
 21
129.6491106741586
 31
0.0
 11
122.6339943057214
 21
129.4349256212854
 31
0.0
 11
123.4186401648357
 21
129.2518954786695
 31
0.0
  0
SPLINE
  5
38E
330
1F
100
AcDbEntity
  8
0
  6
Continuous
 62
     7
100
AcDbSpline
210
0.0
220
0.0
230
1.0
 70
     8
 71
     3
 72
    17
 73
    13
 74
    11
 42
0.000000001
 43
0.0000000001
 44
0.00000001
 40
0.0
 40
0.0
 40
0.0
 40
0.0
 40
0.0663708641080669
 40
0.1380952941695549
 40
0.2105441414319527
 40
0.2764216384248371
 40
0.3412969983783387
 40
0.4040428391340779
 40
0.4383233403574222
 40
0.4786335212579855
 40
0.5177624512299811
 40
0.5534313408857949
 40
0.5534313408857949
 40
0.5534313408857949
 40
0.5534313408857949
 10
127.0940044829821
 20
128.4839817298432
 30
0.0
 10
127.1161382594384
 20
128.4845431225564
 30
0.0
 10
127.1621911527572
 20
128.4857112056141
 30
0.0
 10
127.2317171941524
 20
128.4970152379374
 30
0.0
 10
127.2987979029149
 20
128.5181873724316
 30
0.0
 10
127.3587917735297
 20
128.5506172266424
 30
0.0
 10
127.4079476550536
 20
128.593292929355
 30
0.0
 10
127.4392305961173
 20
128.6379723179735
 30
0.0
 10
127.4581641218401
 20
128.6797733600271
 30
0.0
 10
127.4689755628102
 20
128.7162271254202
 30
0.0
 10
127.4752362951916
 20
128.7542138518002
 30
0.0
 10
127.4759206811271
 20
128.7791578037102
 30
0.0
 10
127.4762470380552
 20
128.7910528442087
 30
0.0
 11
127.0940044829821
 21
128.4839817298432
 31
0.0
 11
127.1603016422921
 21
128.487108735163
 31
0.0
 11
127.2310902560853
 21
128.4986571611941
 31
0.0
 11
127.2999815675056
 21
128.5210808731287
 31
0.0
 11
127.357719984509
 21
128.5528002676233
 31
0.0
 11
127.4064830073481
 21
128.5955902211632
 31
0.0
 11
127.4424844011102
 21
128.6469803016669
 31
0.0
 11
127.4566587005875
 21
128.6781931525435
 31
0.0
 11
127.4682557525576
 21
128.7167990999078
 31
0.0
 11
127.4744984508936
 21
128.7554268364493
 31
0.0
 11
127.4762470380552
 21
128.7910528442087
 31
0.0
  0
SPLINE
  5
38F
330
1F
100
AcDbEntity
  8
0
  6
Continuous
 62
     7
100
AcDbSpline
210
0.0
220
0.0
230
1.0
 70
     8
 71
     3
 72
     9
 73
     5
 74
     3
 42
0.000000001
 43
0.0000000001
 44
0.00000001
 40
0.0
 40
0.0
 40
0.0
 40
0.0
 40
0.6751350158031484
 40
1.325999346457333
 40
1.325999346457333
 40
1.325999346457333
 40
1.325999346457333
 10
67.09122098000807
 20
130.8662992018342
 30
0.0
 10
67.28635234047023
 20
130.978704120536
 30
0.0
 10
67.66960019945262
 20
131.1994730878017
 30
0.0
 10
68.02999181413965
 20
131.4558416170688
 30
0.0
 10
68.20688936728266
 20
131.5816796444239
 30
0.0
 11
67.09122098000807
 21
130.8662992018342
 31
0.0
 11
67.67068990379565
 21
131.212742640737
 31
0.0
 11
68.20688936728266
 21
131.5816796444239
 31
0.0
  0
SPLINE
  5
390
330
1F
100
AcDbEntity
  8
0
  6
Continuous
 62
     7
100
AcDbSpline
210
0.0
220
0.0
230
1.0
 70
     8
 71
     3
 72
     9
 73
     5
 74
     3
 42
0.000000001
 43
0.0000000001
 44
0.00000001
 40
0.0
 40
0.0
 40
0.0
 40
0.0
 40
0.8057103430923931
 40
1.595912057489728
 40
1.595912057489728
 40
1.595912057489728
 40
1.595912057489728
 10
62.93602805656036
 20
129.2518954786696
 30
0.0
 10
63.19834215310069
 20
129.3099303473792
 30
0.0
 10
63.71792121680156
 20
129.4248830262999
 30
0.0
 10
64.22849052713246
 20
129.5748539102547
 30
0.0
 10
64.48129439457347
 20
129.6491106741586
 30
0.0
 11
62.93602805656036
 21
129.2518954786696
 31
0.0
 11
63.72067391567465
 21
129.4349256212854
 31
0.0
 11
64.48129439457347
 21
129.6491106741586
 31
0.0
  0
SPLINE
  5
391
330
1F
100
AcDbEntity
  8
0
  6
Continuous
 62
     7
100
AcDbSpline
210
0.0
220
0.0
230
1.0
 70
     8
 71
     3
 72
     9
 73
     5
 74
     3
 42
0.000000001
 43
0.0000000001
 44
0.00000001
 40
0.0
 40
0.0
 40
0.0
 40
0.0
 40
0.7614971008903806
 40
1.503651190639894
 40
1.503651190639894
 40
1.503651190639894
 40
1.503651190639894
 10
64.39997953462807
 20
129.7374054334444
 30
0.0
 10
64.64186897782605
 20
129.8146755814298
 30
0.0
 10
65.11950355298717
 20
129.9672531345995
 30
0.0
 10
65.58447114046054
 20
130.1549067411185
 30
0.0
 10
65.81396425267667
 20
130.2475265629837
 30
0.0
 11
64.39997953462807
 21
129.7374054334444
 31
0.0
 11
65.12239911576316
 21
129.9782119612521
 31
0.0
 11
65.81396425267667
 21
130.2475265629837
 31
0.0
  0
SPLINE
  5
392
330
1F
100
AcDbEntity
  8
0
  6
Continuous
 62
     7
100
AcDbSpline
210
0.0
220
0.0
230
1.0
 70
     8
 71
     3
 72
     9
 73
     5
 74
     3
 42
0.000000001
 43
0.0000000001
 44
0.00000001
 40
0.0
 40
0.0
 40
0.0
 40
0.0
 40
0.7315726120462455
 40
1.440374069022104
 40
1.440374069022104
 40
1.440374069022104
 40
1.440374069022104
 10
65.91577164476769
 20
130.1666248635463
 30
0.0
 10
66.13956479423015
 20
130.2637935815615
 30
0.0
 10
66.58018522998516
 20
130.4551065321672
 30
0.0
 10
67.00331776736705
 20
130.6824771683331
 30
0.0
 10
67.21153933916185
 20
130.7943652218004
 30
0.0
 11
65.91577164476769
 21
130.1666248635463
 31
0.0
 11
66.58263978681929
 21
130.4674327228517
 31
0.0
 11
67.21153933916185
 21
130.7943652218004
 31
0.0
  0
SPLINE
  5
393
330
1F
100
AcDbEntity
  8
0
  6
Continuous
 62
     7
100
AcDbSpline
210
0.0
220
0.0
230
1.0
 70
     8
 71
     3
 72
     9
 73
     5
 74
     3
 42
0.000000001
 43
0.0000000001
 44
0.00000001
 40
0.0
 40
0.0
 40
0.0
 40
0.0
 40
0.829593944646546
 40
1.667312548946112
 40
1.667312548946112
 40
1.667312548946112
 40
1.667312548946112
 10
62.13117953156888
 20
142.5585756957396
 30
0.0
 10
61.85781765848121
 20
142.6008106694442
 30
0.0
 10
61.30841672982442
 20
142.6856942268475
 30
0.0
 10
60.75479707097579
 20
142.736229534554
 30
0.0
 10
60.47663837176407
 20
142.7616203053624
 30
0.0
 11
62.13117953156888
 21
142.5585756957396
 31
0.0
 11
61.31004948204185
 21
142.6767770286522
 31
0.0
 11
60.47663837176407
 21
142.7616203053624
 31
0.0
  0
SPLINE
  5
394
330
1F
100
AcDbEntity
  8
0
  6
Continuous
 62
     7
100
AcDbSpline
210
0.0
220
0.0
230
1.0
 70
     8
 71
     3
 72
     9
 73
     5
 74
     3
 42
0.000000001
 43
0.0000000001
 44
0.00000001
 40
0.0
 40
0.0
 40
0.0
 40
0.0
 40
0.7942001958951235
 40
1.601389564761085
 40
1.601389564761085
 40
1.601389564761085
 40
1.601389564761085
 10
63.65022506303626
 20
142.1332074819052
 30
0.0
 10
63.39300365170755
 20
142.1961549613944
 30
0.0
 10
62.87435395921894
 20
142.323079409162
 30
0.0
 10
62.34849825340434
 20
142.4157422916975
 30
0.0
 10
62.08343774109494
 20
142.4624495261455
 30
0.0
 11
63.65022506303626
 21
142.1332074819052
 31
0.0
 11
62.87678842962356
 21
142.3136229069729
 31
0.0
 11
62.08343774109494
 21
142.4624495261455
 31
0.0
  0
SPLINE
  5
395
330
1F
100
AcDbEntity
  8
0
  6
Continuous
 62
     7
100
AcDbSpline
210
0.0
220
0.0
230
1.0
 70
     8
 71
     3
 72
     9
 73
     5
 74
     3
 42
0.000000001
 43
0.0000000001
 44
0.00000001
 40
0.0
 40
0.0
 40
0.0
 40
0.0
 40
0.5864758306491754
 40
1.197046743818312
 40
1.197046743818312
 40
1.197046743818312
 40
1.197046743818312
 10
69.68655287451014
 20
138.8983418516944
 30
0.0
 10
69.55685198792115
 20
139.0448700815864
 30
0.0
 10
69.29212150064063
 20
139.3439465706756
 30
0.0
 10
68.9932462210015
 20
139.6089336723304
 30
0.0
 10
68.84080057773838
 20
139.7440941484661
 30
0.0
 11
69.68655287451014
 21
138.8983418516944
 31
0.0
 11
69.28925419739033
 21
139.3297438238355
 31
0.0
 11
68.84080057773838
 21
139.7440941484661
 31
0.0
  0
SPLINE
  5
396
330
1F
100
AcDbEntity
  8
0
  6
Continuous
 62
     7
100
AcDbSpline
210
0.0
220
0.0
230
1.0
 70
     8
 71
     3
 72
     9
 73
     5
 74
     3
 42
0.000000001
 43
0.0000000001
 44
0.00000001
 40
0.0
 40
0.0
 40
0.0
 40
0.0
 40
0.7725332915077227
 40
1.562735005242474
 40
1.562735005242474
 40
1.562735005242474
 40
1.562735005242474
 10
65.21418382532596
 20
141.7660804972661
 30
0.0
 10
64.97077091459589
 20
141.8503881460102
 30
0.0
 10
64.47837804917246
 20
142.0209316043211
 30
0.0
 10
63.97513851949015
 20
142.1561755330193
 30
0.0
 10
63.72067391614695
 20
142.2245620276695
 30
0.0
 11
65.21418382532596
 21
141.7660804972661
 31
0.0
 11
64.48129439402828
 21
142.0103769735915
 31
0.0
 11
63.72067391614695
 21
142.2245620276695
 31
0.0
  0
SPLINE
  5
397
330
1F
100
AcDbEntity
  8
0
  6
Continuous
 62
     7
100
AcDbSpline
210
0.0
220
0.0
230
1.0
 70
     8
 71
     3
 72
     9
 73
     5
 74
     3
 42
0.000000001
 43
0.0000000001
 44
0.00000001
 40
0.0
 40
0.0
 40
0.0
 40
0.0
 40
0.093232600859854
 40
0.1836900492721161
 40
0.1836900492721161
 40
0.1836900492721161
 40
0.1836900492721161
 10
79.27231125088088
 20
140.5136580687806
 30
0.0
 10
79.24319728932991
 20
140.5027805805921
 30
0.0
 10
79.18583597674726
 20
140.4813493637977
 30
0.0
 10
79.12916152497296
 20
140.4581630345858
 30
0.0
 10
79.10125241585314
 20
140.4467450080333
 30
0.0
 11
79.27231125088088
 21
140.5136580687806
 31
0.0
 11
79.18514631276233
 21
140.4805734583852
 31
0.0
 11
79.10125241585314
 21
140.4467450080333
 31
0.0
  0
SPLINE
  5
398
330
1F
100
AcDbEntity
  8
0
  6
Continuous
 62
     7
100
AcDbSpline
210
0.0
220
0.0
230
1.0
 70
     8
 71
     3
 72
     9
 73
     5
 74
     3
 42
0.000000001
 43
0.0000000001
 44
0.00000001
 40
0.0
 40
0.0
 40
0.0
 40
0.0
 40
0.4959741038587527
 40
0.9774387736486906
 40
0.9774387736486906
 40
0.9774387736486906
 40
0.9774387736486906
 10
79.25185405877045
 20
140.3297438241803
 30
0.0
 10
79.38808021203054
 20
140.235939248013
 30
0.0
 10
79.65654728985199
 20
140.0510742778685
 30
0.0
 10
79.90942212723493
 20
139.8454031795211
 30
0.0
 10
80.03398265980616
 20
139.744094148466
 30
0.0
 11
79.25185405877045
 21
140.3297438241803
 31
0.0
 11
79.65651786526284
 21
140.0429729824313
 31
0.0
 11
80.03398265980616
 21
139.744094148466
 31
0.0
  0
SPLINE
  5
399
330
1F
100
AcDbEntity
  8
0
  6
Continuous
 62
     7
100
AcDbSpline
210
0.0
220
0.0
230
1.0
 70
     8
 71
     3
 72
    17
 73
    13
 74
    11
 42
0.000000001
 43
0.0000000001
 44
0.00000001
 40
0.0
 40
0.0
 40
0.0
 40
0.0
 40
0.0428903385421965
 40
0.0813702652278866
 40
0.1187971390176779
 40
0.1571874796731775
 40
0.1917404207978896
 40
0.2275886728615763
 40
0.2511783005493435
 40
0.2746775609542769
 40
0.2999121521047562
 40
0.3253451224588373
 40
0.3253451224588373
 40
0.3253451224588373
 40
0.3253451224588373
 10
79.27231125088088
 20
140.5136580687806
 30
0.0
 10
79.26389305190318
 20
140.5252323224636
 30
0.0
 10
79.24792230846941
 20
140.5471906576396
 30
0.0
 10
79.22951780263962
 20
140.5824337888176
 30
0.0
 10
79.21732717421408
 20
140.6187480096346
 30
0.0
 10
79.21421341161694
 20
140.6559529179567
 30
0.0
 10
79.22274639765352
 20
140.6918409591742
 30
0.0
 10
79.23961959997652
 20
140.7188416088933
 30
0.0
 10
79.25907256041054
 20
140.7386093742668
 30
0.0
 10
79.27823879463433
 20
140.7533279888495
 30
0.0
 10
79.29940019812281
 20
140.7662194765816
 30
0.0
 10
79.31471694772581
 20
140.7733586626153
 30
0.0
 10
79.32240531041265
 20
140.7769422256256
 30
0.0
 11
79.27231125088088
 21
140.5136580687806
 31
0.0
 11
79.24799144807378
 21
140.5489869312089
 31
0.0
 11
79.23029617832475
 21
140.5831568344808
 31
0.0
 11
79.21887925217784
 21
140.618799853169
 31
0.0
 11
79.21625992794446
 21
140.6571007346136
 31
0.0
 11
79.224359058022
 21
140.6906910596873
 31
0.0
 11
79.24301007107539
 21
140.7213053863257
 31
0.0
 11
79.25945366443604
 21
140.7382192508428
 31
0.0
 11
79.27800910106254
 21
140.7526383718887
 31
0.0
 11
79.29955695654778
 21
140.7657713294984
 31
0.0
 11
79.32240531041265
 21
140.7769422256256
 31
0.0
  0
SPLINE
  5
39A
330
1F
100
AcDbEntity
  8
0
  6
Continuous
 62
     7
100
AcDbSpline
210
0.0
220
0.0
230
1.0
 70
     8
 71
     3
 72
    11
 73
     7
 74
     5
 42
0.000000001
 43
0.0000000001
 44
0.00000001
 40
0.0
 40
0.0
 40
0.0
 40
0.0
 40
0.0521025907267703
 40
0.0967130359658115
 40
0.1480832902844681
 40
0.1908881225696538
 40
0.1908881225696538
 40
0.1908881225696538
 40
0.1908881225696538
 10
79.25185405877045
 20
140.3297438241803
 30
0.0
 10
79.23751515720437
 20
140.3395469587035
 30
0.0
 10
79.21089923937154
 20
140.3577435877295
 30
0.0
 10
79.17135409467946
 20
140.3872986489176
 30
0.0
 10
79.13518420251089
 20
140.4161805146744
 30
0.0
 10
79.11185575098719
 20
140.4371939108062
 30
0.0
 10
79.10125241585314
 20
140.4467450080333
 30
0.0
 11
79.25185405877045
 21
140.3297438241803
 31
0.0
 11
79.20906635983252
 21
140.3594741584847
 31
0.0
 11
79.17329258351214
 21
140.3861261524314
 31
0.0
 11
79.13331347356043
 21
140.4183840794145
 31
0.0
 11
79.10125241585314
 21
140.4467450080333
 31
0.0
  0
SPLINE
  5
39B
330
1F
100
AcDbEntity
  8
0
  6
Continuous
 62
     7
100
AcDbSpline
210
0.0
220
0.0
230
1.0
 70
     8
 71
     3
 72
     9
 73
     5
 74
     3
 42
0.000000001
 43
0.0000000001
 44
0.00000001
 40
0.0
 40
0.0
 40
0.0
 40
0.0
 40
0.0161819178361209
 40
0.0323454911666906
 40
0.0323454911666906
 40
0.0323454911666906
 40
0.0323454911666906
 10
80.93367571720029
 20
138.8545047370156
 30
0.0
 10
80.93715404282665
 20
138.8503820863773
 30
0.0
 10
80.94410673560034
 20
138.8421414458336
 30
0.0
 10
80.95102849567868
 20
138.833874806221
 30
0.0
 10
80.95448740525057
 20
138.8297438241707
 30
0.0
 11
80.93367571720029
 21
138.8545047370156
 31
0.0
 11
80.94410294447572
 21
138.8421302715077
 31
0.0
 11
80.95448740525057
 21
138.8297438241707
 31
0.0
  0
SPLINE
  5
39C
330
1F
100
AcDbEntity
  8
0
  6
Continuous
 62
     7
100
AcDbSpline
210
0.0
220
0.0
230
1.0
 70
     8
 71
     3
 72
     9
 73
     5
 74
     3
 42
0.000000001
 43
0.0000000001
 44
0.00000001
 40
0.0
 40
0.0
 40
0.0
 40
0.0
 40
0.6105709131691665
 40
1.197046743818427
 40
1.197046743818427
 40
1.197046743818427
 40
1.197046743818427
 10
80.24359911580154
 20
139.7440941484661
 30
0.0
 10
80.39604475906468
 20
139.6089336723304
 30
0.0
 10
80.6949200387038
 20
139.3439465706756
 30
0.0
 10
80.95965052598442
 20
139.0448700815863
 30
0.0
 10
81.08935141257348
 20
138.8983418516944
 30
0.0
 11
80.24359911580154
 21
139.7440941484661
 31
0.0
 11
80.69205273545352
 21
139.3297438238355
 31
0.0
 11
81.08935141257348
 21
138.8983418516944
 31
0.0
  0
SPLINE
  5
39D
330
1F
100
AcDbEntity
  8
0
  6
Continuous
 62
     7
100
AcDbSpline
210
0.0
220
0.0
230
1.0
 70
     8
 71
     3
 72
     9
 73
     5
 74
     3
 42
0.000000001
 43
0.0000000001
 44
0.00000001
 40
0.0
 40
0.0
 40
0.0
 40
0.0
 40
0.7211215755997743
 40
1.463275664540646
 40
1.463275664540646
 40
1.463275664540646
 40
1.463275664540646
 10
66.47130570772066
 20
141.1154504816919
 30
0.0
 10
66.2533931089737
 20
141.2171479926863
 30
0.0
 10
65.81121217958142
 20
141.423509145648
 30
0.0
 10
65.35419314025172
 20
141.5945340994927
 30
0.0
 10
65.12239911636988
 20
141.6812756876505
 30
0.0
 11
66.47130570772066
 21
141.1154504816919
 31
0.0
 11
65.81396425200393
 21
141.4119610848235
 31
0.0
 11
65.12239911636988
 21
141.6812756876505
 31
0.0
  0
SPLINE
  5
39E
330
1F
100
AcDbEntity
  8
0
  6
Continuous
 62
     7
100
AcDbSpline
210
0.0
220
0.0
230
1.0
 70
     8
 71
     3
 72
     9
 73
     5
 74
     3
 42
0.000000001
 43
0.0000000001
 44
0.00000001
 40
0.0
 40
0.0
 40
0.0
 40
0.0
 40
0.626279032305185
 40
1.277143361971742
 40
1.277143361971742
 40
1.277143361971742
 40
1.277143361971742
 10
68.69720705803354
 20
139.6881748581189
 30
0.0
 10
68.53586236123878
 20
139.8208830261104
 30
0.0
 10
68.20683918547195
 20
140.0915089566616
 30
0.0
 10
67.85168526651303
 20
140.3268230466991
 30
0.0
 10
67.67068990464645
 20
140.446745008047
 30
0.0
 11
68.69720705803354
 21
139.6881748581189
 31
0.0
 11
68.20688936638064
 21
140.077808003511
 31
0.0
 11
67.67068990464645
 21
140.446745008047
 31
0.0
  0
SPLINE
  5
39F
330
1F
100
AcDbEntity
  8
0
  6
Continuous
 62
     7
100
AcDbSpline
210
0.0
220
0.0
230
1.0
 70
     8
 71
     3
 72
     9
 73
     5
 74
     3
 42
0.000000001
 43
0.0000000001
 44
0.00000001
 40
0.0
 40
0.0
 40
0.0
 40
0.0
 40
0.684919582231617
 40
1.393721038269724
 40
1.393721038269724
 40
1.393721038269724
 40
1.393721038269724
 10
67.79940636415745
 20
140.5136580686829
 30
0.0
 10
67.60507592217591
 20
140.6337243697362
 30
0.0
 10
67.2096390865988
 20
140.8780434434712
 30
0.0
 10
66.79401351793997
 20
141.0861955194268
 30
0.0
 10
66.58263978756588
 20
141.1920549260037
 30
0.0
 11
67.79940636415745
 21
140.5136580686829
 31
0.0
 11
67.21153933835524
 21
140.8651224260591
 31
0.0
 11
66.58263978756588
 21
141.1920549260037
 31
0.0
  0
SPLINE
  5
3A0
330
1F
100
AcDbEntity
  8
0
  6
Continuous
 62
     7
100
AcDbSpline
210
0.0
220
0.0
230
1.0
 70
     8
 71
     3
 72
     9
 73
     5
 74
     3
 42
0.000000001
 43
0.0000000001
 44
0.00000001
 40
0.0
 40
0.0
 40
0.0
 40
0.0
 40
0.7421540897495028
 40
1.503651190639856
 40
1.503651190639856
 40
1.503651190639856
 40
1.503651190639856
 10
120.5407039687194
 20
130.2475265629837
 30
0.0
 10
120.7701970809356
 20
130.1549067411185
 30
0.0
 10
121.2351646684089
 20
129.9672531345995
 30
0.0
 10
121.71279924357
 20
129.8146755814299
 30
0.0
 10
121.954688686768
 20
129.7374054334445
 30
0.0
 11
120.5407039687194
 21
130.2475265629837
 31
0.0
 11
121.2322691056329
 21
129.9782119612521
 31
0.0
 11
121.954688686768
 21
129.7374054334445
 31
0.0
  0
SPLINE
  5
3A1
330
1F
100
AcDbEntity
  8
0
  6
Continuous
 62
     7
100
AcDbSpline
210
0.0
220
0.0
230
1.0
 70
     8
 71
     3
 72
     9
 73
     5
 74
     3
 42
0.000000001
 43
0.0000000001
 44
0.00000001
 40
0.0
 40
0.0
 40
0.0
 40
0.0
 40
0.4814646697898162
 40
0.9774387736482819
 40
0.9774387736482819
 40
0.9774387736482819
 40
0.9774387736482819
 10
106.3206855615894
 20
139.7440941484661
 30
0.0
 10
106.4452460941606
 20
139.8454031795211
 30
0.0
 10
106.6981209315435
 20
140.0510742778685
 30
0.0
 10
106.9665880093649
 20
140.2359392480129
 30
0.0
 10
107.1028141626249
 20
140.32974382418
 30
0.0
 11
106.3206855615894
 21
139.7440941484661
 31
0.0
 11
106.6981503561327
 21
140.0429729824313
 31
0.0
 11
107.1028141626249
 21
140.32974382418
 31
0.0
  0
SPLINE
  5
3A2
330
1F
100
AcDbEntity
  8
0
  6
Continuous
 62
     7
100
AcDbSpline
210
0.0
220
0.0
230
1.0
 70
     8
 71
     3
 72
     9
 73
     5
 74
     3
 42
0.000000001
 43
0.0000000001
 44
0.00000001
 40
0.0
 40
0.0
 40
0.0
 40
0.0
 40
0.6105709131690684
 40
1.197046743818184
 40
1.197046743818184
 40
1.197046743818184
 40
1.197046743818184
 10
106.1110691055939
 20
139.744094148466
 30
0.0
 10
105.9586234623308
 20
139.6089336723303
 30
0.0
 10
105.6597481826917
 20
139.3439465706757
 30
0.0
 10
105.3950176954112
 20
139.0448700815864
 30
0.0
 10
105.2653168088222
 20
138.8983418516944
 30
0.0
 11
106.1110691055939
 21
139.744094148466
 31
0.0
 11
105.662615485942
 21
139.3297438238355
 31
0.0
 11
105.2653168088222
 21
138.8983418516944
 31
0.0
  0
SPLINE
  5
3A3
330
1F
100
AcDbEntity
  8
0
  6
Continuous
 62
     7
100
AcDbSpline
210
0.0
220
0.0
230
1.0
 70
     8
 71
     3
 72
     9
 73
     5
 74
     3
 42
0.000000001
 43
0.0000000001
 44
0.00000001
 40
0.0
 40
0.0
 40
0.0
 40
0.0
 40
0.6508643306540497
 40
1.325999346457198
 40
1.325999346457198
 40
1.325999346457198
 40
1.325999346457198
 10
118.1477788541135
 20
131.5816796444238
 30
0.0
 10
118.3246764072565
 20
131.4558416170686
 30
0.0
 10
118.6850680219435
 20
131.1994730878017
 30
0.0
 10
119.0683158809259
 20
130.978704120536
 30
0.0
 10
119.263447241388
 20
130.8662992018342
 30
0.0
 11
118.1477788541135
 21
131.5816796444238
 31
0.0
 11
118.6839783176004
 21
131.212742640737
 31
0.0
 11
119.263447241388
 21
130.8662992018342
 31
0.0
  0
SPLINE
  5
3A4
330
1F
100
AcDbEntity
  8
0
  6
Continuous
 62
     7
100
AcDbSpline
210
0.0
220
0.0
230
1.0
 70
     8
 71
     3
 72
     9
 73
     5
 74
     3
 42
0.000000001
 43
0.0000000001
 44
0.00000001
 40
0.0
 40
0.0
 40
0.0
 40
0.0
 40
0.5244020397214127
 40
1.033677768955807
 40
1.033677768955807
 40
1.033677768955807
 40
1.033677768955807
 10
116.0344665733515
 20
137.9928627847953
 30
0.0
 10
115.9523080398314
 20
137.8382053596061
 30
0.0
 10
115.7903608434056
 20
137.533351574715
 30
0.0
 10
115.6797504535794
 20
137.2063763097622
 30
0.0
 10
115.6252545756659
 20
137.0452810678392
 30
0.0
 11
116.0344665733515
 21
137.9928627847953
 31
0.0
 11
115.8012035501881
 21
137.5231970932062
 31
0.0
 11
115.6252545756659
 21
137.0452810678392
 31
0.0
  0
SPLINE
  5
3A5
330
1F
100
AcDbEntity
  8
0
  6
Continuous
 62
     7
100
AcDbSpline
210
0.0
220
0.0
230
1.0
 70
     8
 71
     3
 72
     9
 73
     5
 74
     3
 42
0.000000001
 43
0.0000000001
 44
0.00000001
 40
0.0
 40
0.0
 40
0.0
 40
0.0
 40
0.7088014569740371
 40
1.440374069018416
 40
1.440374069018416
 40
1.440374069018416
 40
1.440374069018416
 10
119.1431288822374
 20
130.7943652217985
 30
0.0
 10
119.3513504540317
 20
130.6824771683316
 30
0.0
 10
119.7744829914126
 20
130.4551065321664
 30
0.0
 10
120.2151034271665
 20
130.2637935815611
 30
0.0
 10
120.4388965766284
 20
130.1666248635463
 30
0.0
 11
119.1431288822374
 21
130.7943652217985
 31
0.0
 11
119.7720284345785
 21
130.4674327228509
 31
0.0
 11
120.4388965766284
 21
130.1666248635463
 31
0.0
  0
SPLINE
  5
3A6
330
1F
100
AcDbEntity
  8
0
  6
Continuous
 62
     7
100
AcDbSpline
210
0.0
220
0.0
230
1.0
 70
     8
 71
     3
 72
    19
 73
    15
 74
    13
 42
0.000000001
 43
0.0000000001
 44
0.00000001
 40
0.0
 40
0.0
 40
0.0
 40
0.0
 40
0.0676514074569688
 40
0.1293211238732611
 40
0.1962091165388657
 40
0.27993553662466
 40
0.3601557887005998
 40
0.4322337405392176
 40
0.5822626136909181
 40
0.7404936152116446
 40
0.9292950177766934
 40
1.120195450173177
 40
1.315002486979665
 40
1.501549842076417
 40
1.501549842076417
 40
1.501549842076417
 40
1.501549842076417
 10
105.4001808161449
 20
138.8297438241707
 30
0.0
 10
105.3851612074986
 20
138.8129003406209
 30
0.0
 10
105.3564500002681
 20
138.7807026758348
 30
0.0
 10
105.3076861682684
 20
138.7369648754646
 30
0.0
 10
105.2522549067595
 20
138.6929393393322
 30
0.0
 10
105.1888317774994
 20
138.6492510159195
 30
0.0
 10
105.1214829828424
 20
138.6085149475177
 30
0.0
 10
105.0328002685868
 20
138.5605899567501
 30
0.0
 10
104.9175477900394
 20
138.5074190216813
 30
0.0
 10
104.7622288797307
 20
138.4493628792268
 30
0.0
 10
104.589856751598
 20
138.3992069589821
 30
0.0
 10
104.402224120629
 20
138.360265508462
 30
0.0
 10
104.21283927671
 20
138.3348145074032
 30
0.0
 10
104.0856919609992
 20
138.3314094646296
 30
0.0
 10
104.0234952324207
 20
138.3297438241707
 30
0.0
 11
105.4001808161449
 21
138.8297438241707
 31
0.0
 11
105.3541836042804
 21
138.7801356602447
 31
0.0
 11
105.3086106519313
 21
138.7385873668029
 31
0.0
 11
105.2562466187156
 21
138.6969699285357
 31
0.0
 11
105.1874155811051
 21
138.6493002159857
 31
0.0
 11
105.1188221015362
 21
138.6077042626753
 31
0.0
 11
105.0554391662576
 21
138.5733846673288
 31
0.0
 11
104.9193433825259
 21
138.5102451363307
 31
0.0
 11
104.7712070600957
 21
138.4546332685414
 31
0.0
 11
104.5899508354593
 21
138.4017924621377
 31
0.0
 11
104.4030891451071
 21
138.3627324541403
 31
0.0
 11
104.2098604782632
 21
138.3379844591925
 31
0.0
 11
104.0234952324207
 21
138.3297438241707
 31
0.0
  0
SPLINE
  5
3A7
330
1F
100
AcDbEntity
  8
0
  6
Continuous
 62
     7
100
AcDbSpline
210
0.0
220
0.0
230
1.0
 70
     8
 71
     3
 72
     9
 73
     5
 74
     3
 42
0.000000001
 43
0.0000000001
 44
0.00000001
 40
0.0
 40
0.0
 40
0.0
 40
0.0
 40
0.6105709131690982
 40
1.197046743818344
 40
1.197046743818344
 40
1.197046743818344
 40
1.197046743818344
 10
117.5138676436579
 20
139.7440941484661
 30
0.0
 10
117.3614220003948
 20
139.6089336723304
 30
0.0
 10
117.0625467207556
 20
139.3439465706757
 30
0.0
 10
116.7978162334751
 20
139.0448700815864
 30
0.0
 10
116.6681153468861
 20
138.8983418516944
 30
0.0
 11
117.5138676436579
 21
139.7440941484661
 31
0.0
 11
117.0654140240059
 21
139.3297438238356
 31
0.0
 11
116.6681153468861
 21
138.8983418516944
 31
0.0
  0
SPLINE
  5
3A8
330
1F
100
AcDbEntity
  8
0
  6
Continuous
 62
     7
100
AcDbSpline
210
0.0
220
0.0
230
1.0
 70
     8
 71
     3
 72
     9
 73
     5
 74
     3
 42
0.000000001
 43
0.0000000001
 44
0.00000001
 40
0.0
 40
0.0
 40
0.0
 40
0.0
 40
0.5556047735393107
 40
1.090597662203431
 40
1.090597662203431
 40
1.090597662203431
 40
1.090597662203431
 10
116.8237910422592
 20
138.8545047370156
 30
0.0
 10
116.7070436217475
 20
138.7103959834923
 30
0.0
 10
116.4778799050307
 20
138.4275246264806
 30
0.0
 10
116.2909116826224
 20
138.1151812117236
 30
0.0
 10
116.1991943940607
 20
137.9619610853578
 30
0.0
 11
116.8237910422592
 21
138.8545047370156
 31
0.0
 11
116.4845001699976
 21
138.4145293184931
 31
0.0
 11
116.1991943940607
 21
137.9619610853578
 31
0.0
  0
SPLINE
  5
3A9
330
1F
100
AcDbEntity
  8
0
  6
Continuous
 62
     7
100
AcDbSpline
210
0.0
220
0.0
230
1.0
 70
     8
 71
     3
 72
     9
 73
     5
 74
     3
 42
0.000000001
 43
0.0000000001
 44
0.00000001
 40
0.0
 40
0.0
 40
0.0
 40
0.0
 40
0.0161635733305971
 40
0.0323454911667638
 40
0.0323454911667638
 40
0.0323454911667638
 40
0.0323454911667638
 10
105.4001808161449
 20
138.8297438241707
 30
0.0
 10
105.4036397257168
 20
138.833874806221
 30
0.0
 10
105.4105614857951
 20
138.8421414458336
 30
0.0
 10
105.4175141785689
 20
138.8503820863773
 30
0.0
 10
105.4209925041953
 20
138.8545047370156
 30
0.0
 11
105.4001808161449
 21
138.8297438241707
 31
0.0
 11
105.4105652769198
 21
138.8421302715077
 31
0.0
 11
105.4209925041953
 21
138.8545047370156
 31
0.0
  0
SPLINE
  5
3AA
330
1F
100
AcDbEntity
  8
0
  6
Continuous
 62
     7
100
AcDbSpline
210
0.0
220
0.0
230
1.0
 70
     8
 71
     3
 72
    25
 73
    21
 74
    19
 42
0.000000001
 43
0.0000000001
 44
0.00000001
 40
0.0
 40
0.0
 40
0.0
 40
0.0
 40
0.0570060496346041
 40
0.1296956712000803
 40
0.202520285833776
 40
0.2801967057735135
 40
0.3494175478454946
 40
0.4327050248203141
 40
0.5084215487936852
 40
0.5866223817056497
 40
0.6678600103288553
 40
0.740872300410556
 40
0.8420184165944772
 40
0.9304187916476923
 40
1.032539664971067
 40
1.121000769630261
 40
1.209675005663776
 40
1.311715538577775
 40
1.408106641695152
 40
1.501760982944633
 40
1.501760982944633
 40
1.501760982944633
 40
1.501760982944633
 10
80.95448740525057
 20
138.8297438241707
 30
0.0
 10
80.96708014434927
 20
138.8154996812153
 30
0.0
 10
80.99573016639927
 20
138.7830925436807
 30
0.0
 10
81.04585489101567
 20
138.7376696404978
 30
0.0
 10
81.10429551965942
 20
138.6915790428475
 30
0.0
 10
81.1647543726324
 20
138.6501399006243
 30
0.0
 10
81.23027715284424
 20
138.6101694314698
 30
0.0
 10
81.29712937117662
 20
138.5737888157336
 30
0.0
 10
81.36824136582815
 20
138.5391739092082
 30
0.0
 10
81.44005986529908
 20
138.5077177388711
 30
0.0
 10
81.51219680660896
 20
138.4793815604843
 30
0.0
 10
81.59248824149199
 20
138.4510437911075
 30
0.0
 10
81.67608787694834
 20
138.4250457075475
 30
0.0
 10
81.77000742667688
 20
138.3998448638472
 30
0.0
 10
81.86071590095989
 20
138.3792265944033
 30
0.0
 10
81.95222867292995
 20
138.362088975232
 30
0.0
 10
82.04427168225148
 20
138.3482268856708
 30
0.0
 10
82.13942698140102
 20
138.3378031951109
 30
0.0
 10
82.23659947195787
 20
138.3310222031025
 30
0.0
 10
82.29995259007033
 20
138.3301658354125
 30
0.0
 10
82.33117298897469
 20
138.3297438241707
 30
0.0
 11
80.95448740525057
 21
138.8297438241707
 31
0.0
 11
80.99293219757834
 21
138.7876523994566
 31
0.0
 11
81.04634208258148
 21
138.7383455457791
 31
0.0
 11
81.10349446798645
 21
138.693212087902
 31
0.0
 11
81.16747090545078
 21
138.6491593745968
 31
0.0
 11
81.22653286679156
 21
138.6130593794441
 31
0.0
 11
81.29964674934519
 21
138.5731699829669
 31
0.0
 11
81.36770584341127
 21
138.5399893909101
 31
0.0
 11
81.43932123066725
 21
138.5085790971598
 31
0.0
 11
81.51492259322842
 21
138.4788471906476
 31
0.0
 11
81.58376668552916
 21
138.4545308289183
 31
0.0
 11
81.68034078212565
 21
138.4244645575203
 31
0.0
 11
81.76571775146397
 21
138.4015429646675
 31
0.0
 11
81.86529740761216
 21
138.3789030690197
 31
0.0
 11
81.95224690975607
 21
138.362619606213
 31
0.0
 11
82.03993637134103
 21
138.3494408900221
 31
0.0
 11
82.14136524393035
 21
138.3382849758011
 31
0.0
 11
82.23754286924587
 21
138.3318733658437
 31
0.0
 11
82.33117298897469
 21
138.3297438241707
 31
0.0
  0
SPLINE
  5
3AB
330
1F
100
AcDbEntity
  8
0
  6
Continuous
 62
     7
100
AcDbSpline
210
0.0
220
0.0
230
1.0
 70
     8
 71
     3
 72
     9
 73
     5
 74
     3
 42
0.000000001
 43
0.0000000001
 44
0.00000001
 40
0.0
 40
0.0
 40
0.0
 40
0.0
 40
0.5349928886640031
 40
1.090597662203373
 40
1.090597662203373
 40
1.090597662203373
 40
1.090597662203373
 10
70.15547382733536
 20
137.9619610853578
 30
0.0
 10
70.06375653877367
 20
138.1151812117236
 30
0.0
 10
69.87678831636542
 20
138.4275246264806
 30
0.0
 10
69.64762459964867
 20
138.7103959834922
 30
0.0
 10
69.53087717913695
 20
138.8545047370156
 30
0.0
 11
70.15547382733536
 21
137.9619610853578
 31
0.0
 11
69.87016805139854
 21
138.414529318493
 31
0.0
 11
69.53087717913695
 21
138.8545047370156
 31
0.0
  0
SPLINE
  5
3AC
330
1F
100
AcDbEntity
  8
0
  6
Continuous
 62
     7
100
AcDbSpline
210
0.0
220
0.0
230
1.0
 70
     8
 71
     3
 72
    11
 73
     7
 74
     5
 42
0.000000001
 43
0.0000000001
 44
0.00000001
 40
0.0
 40
0.0
 40
0.0
 40
0.0
 40
0.052203526298563
 40
0.0968867963307844
 40
0.1481554215472013
 40
0.1908881354221711
 40
0.1908881354221711
 40
0.1908881354221711
 40
0.1908881354221711
 10
107.1028141626249
 20
140.32974382418
 30
0.0
 10
107.117180685338
 20
140.3395661907099
 30
0.0
 10
107.1438441318265
 20
140.357795959984
 30
0.0
 10
107.1834055736789
 20
140.3873694942235
 30
0.0
 10
107.2195456857662
 20
140.416234558799
 30
0.0
 10
107.242830573423
 20
140.4372097475909
 30
0.0
 10
107.2534158055262
 20
140.446745008047
 30
0.0
 11
107.1028141626249
 21
140.32974382418
 31
0.0
 11
107.1456837707094
 21
140.3595331655357
 31
0.0
 11
107.1815132228644
 21
140.3862323229809
 31
0.0
 11
107.2214098185033
 21
140.4184306714614
 31
0.0
 11
107.2534158055262
 21
140.446745008047
 31
0.0
  0
SPLINE
  5
3AD
330
1F
100
AcDbEntity
  8
0
  6
Continuous
 62
     7
100
AcDbSpline
210
0.0
220
0.0
230
1.0
 70
     8
 71
     3
 72
     9
 73
     5
 74
     3
 42
0.000000001
 43
0.0000000001
 44
0.00000001
 40
0.0
 40
0.0
 40
0.0
 40
0.0
 40
0.650864329666563
 40
1.277143361971737
 40
1.277143361971737
 40
1.277143361971737
 40
1.277143361971737
 10
118.6839783167497
 20
140.4467450080472
 30
0.0
 10
118.5029829548831
 20
140.3268230466993
 30
0.0
 10
118.1478290359243
 20
140.0915089566617
 30
0.0
 10
117.8188058601575
 20
139.8208830261105
 30
0.0
 10
117.6574611633627
 20
139.688174858119
 30
0.0
 11
118.6839783167497
 21
140.4467450080472
 31
0.0
 11
118.1477788550156
 21
140.0778080035111
 31
0.0
 11
117.6574611633627
 21
139.688174858119
 31
0.0
  0
SPLINE
  5
3AE
330
1F
100
AcDbEntity
  8
0
  6
Continuous
 62
     7
100
AcDbSpline
210
0.0
220
0.0
230
1.0
 70
     8
 71
     3
 72
     9
 73
     5
 74
     3
 42
0.000000001
 43
0.0000000001
 44
0.00000001
 40
0.0
 40
0.0
 40
0.0
 40
0.0
 40
0.002610197987824
 40
0.005220386227927
 40
0.005220386227927
 40
0.005220386227927
 40
0.005220386227927
 10
60.45253288357316
 20
142.6843766652562
 30
0.0
 10
60.45340039055309
 20
142.6843099832871
 30
0.0
 10
60.45513539973857
 20
142.6841765996567
 30
0.0
 10
60.45687037534938
 20
142.6840427800152
 30
0.0
 10
60.45773786076677
 20
142.683975860349
 30
0.0
 11
60.45253288357316
 21
142.6843766652562
 31
0.0
 11
60.45513539535231
 21
142.6841765003749
 31
0.0
 11
60.45773786076677
 21
142.683975860349
 31
0.0
  0
SPLINE
  5
3AF
330
1F
100
AcDbEntity
  8
0
  6
Continuous
 62
     7
100
AcDbSpline
210
0.0
220
0.0
230
1.0
 70
     8
 71
     3
 72
    17
 73
    13
 74
    11
 42
0.000000001
 43
0.0000000001
 44
0.00000001
 40
0.0
 40
0.0
 40
0.0
 40
0.0
 40
0.0663708641202111
 40
0.1380952941721849
 40
0.2105441414704153
 40
0.2764216384302285
 40
0.333534115033457
 40
0.4040278549806647
 40
0.4434093983578685
 40
0.4786180478970963
 40
0.5177469775927382
 40
0.5534158675239391
 40
0.5534158675239391
 40
0.5534158675239391
 40
0.5534158675239391
 10
59.26066373841354
 20
128.4839817298432
 30
0.0
 10
59.23853001214953
 20
128.4845430080845
 30
0.0
 10
59.19247722327146
 20
128.4857108529646
 30
0.0
 10
59.12295034715726
 20
128.4970167888251
 30
0.0
 10
59.05587279212715
 20
128.5181817312962
 30
0.0
 10
58.99816054357977
 20
128.5493961948659
 30
0.0
 10
58.94857044714993
 20
128.5912878624564
 30
0.0
 10
58.91548940296057
 20
128.6370057212118
 30
0.0
 10
58.89591538686145
 20
128.6813996788715
 30
0.0
 10
58.88541922847542
 20
128.7179073448506
 30
0.0
 10
58.87943097925809
 20
128.7542146326889
 30
0.0
 10
58.87874723450473
 20
128.7791580557924
 30
0.0
 10
58.87842118334396
 20
128.791052844211
 30
0.0
 11
59.26066373841354
 21
128.4839817298432
 31
0.0
 11
59.19436657909286
 21
128.487108735164
 31
0.0
 11
59.12357796531006
 21
128.4986571611943
 31
0.0
 11
59.05468665385759
 21
128.5210808731429
 31
0.0
 11
58.99694823688594
 21
128.552800267624
 31
0.0
 11
58.95348767971622
 21
128.5898544860037
 31
0.0
 11
58.91218382028495
 21
128.6469803016678
 31
0.0
 11
58.89623848366733
 21
128.6829893599894
 31
0.0
 11
58.88641246883776
 21
128.7167990999094
 31
0.0
 11
58.88016977053022
 21
128.7554268361729
 31
0.0
 11
58.87842118334396
 21
128.791052844211
 31
0.0
  0
SPLINE
  5
3B0
330
1F
100
AcDbEntity
  8
0
  6
Continuous
 62
     7
100
AcDbSpline
210
0.0
220
0.0
230
1.0
 70
     8
 71
     3
 72
     9
 73
     5
 74
     3
 42
0.000000001
 43
0.0000000001
 44
0.00000001
 40
0.0
 40
0.0
 40
0.0
 40
0.0
 40
0.0026101886392251
 40
0.0052203862275602
 40
0.0052203862275602
 40
0.0052203862275602
 40
0.0052203862275602
 10
125.8969303606297
 20
142.6839758603485
 30
0.0
 10
125.8977978461797
 20
142.6840427800249
 30
0.0
 10
125.8995328217905
 20
142.6841765996662
 30
0.0
 10
125.9012678309758
 20
142.684309983297
 30
0.0
 10
125.9021353378229
 20
142.6843766652562
 30
0.0
 11
125.8969303606297
 21
142.6839758603485
 31
0.0
 11
125.8995328264421
 21
142.684176500405
 31
0.0
 11
125.9021353378229
 21
142.6843766652562
 31
0.0
  0
SPLINE
  5
3B1
330
1F
100
AcDbEntity
  8
0
  6
Continuous
 62
     7
100
AcDbSpline
210
0.0
220
0.0
230
1.0
 70
     8
 71
     3
 72
     9
 73
     5
 74
     3
 42
0.000000001
 43
0.0000000001
 44
0.00000001
 40
0.0
 40
0.0
 40
0.0
 40
0.0
 40
0.8377186042995939
 40
1.667312548945894
 40
1.667312548945894
 40
1.667312548945894
 40
1.667312548945894
 10
125.8780298496321
 20
142.7616203053624
 30
0.0
 10
125.5998711504203
 20
142.736229534554
 30
0.0
 10
125.0462514915718
 20
142.6856942268475
 30
0.0
 10
124.4968505629151
 20
142.6008106694442
 30
0.0
 10
124.2234886898275
 20
142.5585756957396
 30
0.0
 11
125.8780298496321
 21
142.7616203053624
 31
0.0
 11
125.0446187393543
 21
142.6767770286522
 31
0.0
 11
124.2234886898275
 21
142.5585756957396
 31
0.0
  0
SPLINE
  5
3B2
330
1F
100
AcDbEntity
  8
0
  6
Continuous
 62
     7
100
AcDbSpline
210
0.0
220
0.0
230
1.0
 70
     8
 71
     3
 72
     9
 73
     5
 74
     3
 42
0.000000001
 43
0.0000000001
 44
0.00000001
 40
0.0
 40
0.0
 40
0.0
 40
0.0
 40
0.7421540889408846
 40
1.463275664540672
 40
1.463275664540672
 40
1.463275664540672
 40
1.463275664540672
 10
121.2322691050263
 20
141.6812756876505
 30
0.0
 10
121.0004750811444
 20
141.5945340994927
 30
0.0
 10
120.5434560418147
 20
141.4235091456479
 30
0.0
 10
120.1012751124225
 20
141.2171479926863
 30
0.0
 10
119.8833625136755
 20
141.1154504816919
 30
0.0
 11
121.2322691050263
 21
141.6812756876505
 31
0.0
 11
120.5407039693922
 21
141.4119610848235
 31
0.0
 11
119.8833625136755
 21
141.1154504816919
 31
0.0
  0
SPLINE
  5
3B3
330
1F
100
AcDbEntity
  8
0
  6
Continuous
 62
     7
100
AcDbSpline
210
0.0
220
0.0
230
1.0
 70
     8
 71
     3
 72
    17
 73
    13
 74
    11
 42
0.000000001
 43
0.0000000001
 44
0.00000001
 40
0.0
 40
0.0
 40
0.0
 40
0.0
 40
0.045916744513655
 40
0.0813938340738867
 40
0.1244226667353821
 40
0.1572406006996347
 40
0.1896041902953983
 40
0.2276384228128363
 40
0.2493834429025335
 40
0.2747610421660315
 40
0.2999585808342724
 40
0.3253527272219601
 40
0.3253527272219601
 40
0.3253527272219601
 40
0.3253527272219601
 10
107.0823569704404
 20
140.5136580686826
 30
0.0
 10
107.0913539876365
 20
140.5260682178492
 30
0.0
 10
107.1073024445422
 20
140.5480669456767
 30
0.0
 10
107.1263338986567
 20
140.5850561703178
 30
0.0
 10
107.1378224887105
 20
140.6206988046121
 30
0.0
 10
107.1399610259604
 20
140.6570989220423
 30
0.0
 10
107.1322226538954
 20
140.6911481923156
 30
0.0
 10
107.1158615190802
 20
140.7178304524828
 30
0.0
 10
107.0960311224566
 20
140.7382354310844
 30
0.0
 10
107.0769109136709
 20
140.7530390282512
 30
0.0
 10
107.0552339603845
 20
140.7662357988061
 30
0.0
 10
107.0399397413915
 20
140.7733641866917
 30
0.0
 10
107.032262910983
 20
140.7769422256255
 30
0.0
 11
107.0823569704404
 21
140.5136580686826
 31
0.0
 11
107.1082346096864
 21
140.551588207318
 31
0.0
 11
107.1243810709922
 21
140.5831780119927
 31
0.0
 11
107.1368394979416
 21
140.6243637883853
 31
0.0
 11
107.1384046667796
 21
140.6571443790808
 31
0.0
 11
107.1311214405256
 21
140.6886778000777
 31
0.0
 11
107.111630809022
 21
140.7213384529934
 31
0.0
 11
107.0965608258636
 21
140.7370145986027
 31
0.0
 11
107.0765964698198
 21
140.7526813493678
 31
0.0
 11
107.0550771154612
 21
140.7657898734649
 31
0.0
 11
107.032262910983
 21
140.7769422256255
 31
0.0
  0
SPLINE
  5
3B4
330
1F
100
AcDbEntity
  8
0
  6
Continuous
 62
     7
100
AcDbSpline
210
0.0
220
0.0
230
1.0
 70
     8
 71
     3
 72
     9
 73
     5
 74
     3
 42
0.000000001
 43
0.0000000001
 44
0.00000001
 40
0.0
 40
0.0
 40
0.0
 40
0.0
 40
0.0904574483981635
 40
0.1836900492863423
 40
0.1836900492863423
 40
0.1836900492863423
 40
0.1836900492863423
 10
107.2534158055262
 20
140.446745008047
 30
0.0
 10
107.2255066964105
 20
140.4581630345975
 30
0.0
 10
107.1688322446313
 20
140.4813493638109
 30
0.0
 10
107.111470932015
 20
140.5027805805298
 30
0.0
 10
107.0823569704404
 20
140.5136580686826
 30
0.0
 11
107.2534158055262
 21
140.446745008047
 31
0.0
 11
107.1695219086224
 21
140.4805734583746
 31
0.0
 11
107.0823569704404
 21
140.5136580686826
 31
0.0
  0
SPLINE
  5
3B5
330
1F
100
AcDbEntity
  8
0
  6
Continuous
 62
     7
100
AcDbSpline
210
0.0
220
0.0
230
1.0
 70
     8
 71
     3
 72
     9
 73
     5
 74
     3
 42
0.000000001
 43
0.0000000001
 44
0.00000001
 40
0.0
 40
0.0
 40
0.0
 40
0.0
 40
0.8071893688659387
 40
1.60138956476111
 40
1.60138956476111
 40
1.60138956476111
 40
1.60138956476111
 10
124.2712304803011
 20
142.4624495261457
 30
0.0
 10
124.0061699679917
 20
142.4157422916977
 30
0.0
 10
123.4803142621772
 20
142.3230794091619
 30
0.0
 10
122.9616645696885
 20
142.1961549613945
 30
0.0
 10
122.7044431583598
 20
142.1332074819052
 30
0.0
 11
124.2712304803011
 21
142.4624495261457
 31
0.0
 11
123.4778797917725
 21
142.3136229069729
 31
0.0
 11
122.7044431583598
 21
142.1332074819052
 31
0.0
  0
SPLINE
  5
3B6
330
1F
100
AcDbEntity
  8
0
  6
Continuous
 62
     7
100
AcDbSpline
210
0.0
220
0.0
230
1.0
 70
     8
 71
     3
 72
     9
 73
     5
 74
     3
 42
0.000000001
 43
0.0000000001
 44
0.00000001
 40
0.0
 40
0.0
 40
0.0
 40
0.0
 40
0.7902017137346751
 40
1.562735005242474
 40
1.562735005242474
 40
1.562735005242474
 40
1.562735005242474
 10
122.6339943052491
 20
142.2245620276695
 30
0.0
 10
122.3795297019059
 20
142.1561755330194
 30
0.0
 10
121.8762901722236
 20
142.0209316043212
 30
0.0
 10
121.3838973068002
 20
141.8503881460102
 30
0.0
 10
121.1404843960701
 20
141.7660804972661
 30
0.0
 11
122.6339943052491
 21
142.2245620276695
 31
0.0
 11
121.8733738273678
 21
142.0103769735916
 31
0.0
 11
121.1404843960701
 21
141.7660804972661
 31
0.0
  0
SPLINE
  5
3B7
330
1F
100
AcDbEntity
  8
0
  6
Continuous
 62
     7
100
AcDbSpline
210
0.0
220
0.0
230
1.0
 70
     8
 71
     3
 72
     9
 73
     5
 74
     3
 42
0.000000001
 43
0.0000000001
 44
0.00000001
 40
0.0
 40
0.0
 40
0.0
 40
0.0
 40
0.7088014560381732
 40
1.393721038269756
 40
1.393721038269756
 40
1.393721038269756
 40
1.393721038269756
 10
119.7720284338303
 20
141.1920549260039
 30
0.0
 10
119.5606547034562
 20
141.086195519427
 30
0.0
 10
119.1450291347975
 20
140.8780434434713
 30
0.0
 10
118.7495922992203
 20
140.6337243697362
 30
0.0
 10
118.5552618572388
 20
140.5136580686829
 30
0.0
 11
119.7720284338303
 21
141.1920549260039
 31
0.0
 11
119.143128883041
 21
140.8651224260592
 31
0.0
 11
118.5552618572388
 21
140.5136580686829
 31
0.0
  0
SPLINE
  5
3B8
330
1F
100
AcDbEntity
  8
0
  6
Continuous
 62
     7
100
AcDbSpline
210
0.0
220
0.0
230
1.0
 70
     8
 71
     3
 72
     9
 73
     5
 74
     3
 42
0.000000001
 43
0.0000000001
 44
0.00000001
 40
0.0
 40
0.0
 40
0.0
 40
0.0
 40
0.4909646732534813
 40
0.9795576264628298
 40
0.9795576264628298
 40
0.9795576264628298
 40
0.9795576264628298
 10
70.84719136251897
 20
135.098044581297
 30
0.0
 10
70.87180021404984
 20
135.2602146254227
 30
0.0
 10
70.9208990184253
 20
135.5837713150251
 30
0.0
 10
70.91110779154748
 20
135.9108813067889
 30
0.0
 10
70.90622402150359
 20
136.0740403010882
 30
0.0
 11
70.84719136251897
 21
135.098044581297
 31
0.0
 11
70.90622402034296
 21
135.5854473472766
 31
0.0
 11
70.90622402150359
 21
136.0740403010882
 31
0.0
  0
SPLINE
  5
3B9
330
1F
100
AcDbEntity
  8
0
  6
Continuous
 62
     7
100
AcDbSpline
210
0.0
220
0.0
230
1.0
 70
     8
 71
     3
 72
     9
 73
     5
 74
     3
 42
0.000000001
 43
0.0000000001
 44
0.00000001
 40
0.0
 40
0.0
 40
0.0
 40
0.0
 40
0.483950892392547
 40
0.9748037492115051
 40
0.9748037492115051
 40
0.9748037492115051
 40
0.9748037492115051
 10
70.73312445260206
 20
136.070550351418
 30
0.0
 10
70.7183842546871
 20
136.2315426089333
 30
0.0
 10
70.68869361879871
 20
136.5558231449301
 30
0.0
 10
70.60232833822076
 20
136.8698108341372
 30
0.0
 10
70.55883993933975
 20
137.0279162500724
 30
0.0
 11
70.73312445260206
 21
136.070550351418
 31
0.0
 11
70.67493511617869
 21
136.5509902206484
 31
0.0
 11
70.55883993933975
 21
137.0279162500724
 31
0.0
  0
SPLINE
  5
3BA
330
1F
100
AcDbEntity
  8
0
  6
Continuous
 62
     7
100
AcDbSpline
210
0.0
220
0.0
230
1.0
 70
     8
 71
     3
 72
     9
 73
     5
 74
     3
 42
0.000000001
 43
0.0000000001
 44
0.00000001
 40
0.0
 40
0.0
 40
0.0
 40
0.0
 40
0.4908528568189616
 40
0.9748037492114949
 40
0.9748037492114949
 40
0.9748037492114949
 40
0.9748037492114949
 10
115.7958282820564
 20
137.0279162500724
 30
0.0
 10
115.7523398831754
 20
136.8698108341372
 30
0.0
 10
115.6659746025974
 20
136.5558231449301
 30
0.0
 10
115.6362839667091
 20
136.2315426089333
 30
0.0
 10
115.6215437687942
 20
136.070550351418
 30
0.0
 11
115.7958282820564
 21
137.0279162500724
 31
0.0
 11
115.6797331052175
 21
136.5509902206484
 31
0.0
 11
115.6215437687942
 21
136.070550351418
 31
0.0
  0
SPLINE
  5
3BB
330
1F
100
AcDbEntity
  8
0
  6
Continuous
 62
     7
100
AcDbSpline
210
0.0
220
0.0
230
1.0
 70
     8
 71
     3
 72
     9
 73
     5
 74
     3
 42
0.000000001
 43
0.0000000001
 44
0.00000001
 40
0.0
 40
0.0
 40
0.0
 40
0.0
 40
0.4908528571977374
 40
0.9928532183195338
 40
0.9928532183195338
 40
0.9928532183195338
 40
0.9928532183195338
 10
115.6797331040789
 20
135.1084974276239
 30
0.0
 10
115.7140241353423
 20
134.9481791302366
 30
0.0
 10
115.783384982885
 20
134.6239016352544
 30
0.0
 10
115.9068420720933
 20
134.3161076502147
 30
0.0
 10
115.969263698689
 20
134.1604827445329
 30
0.0
 11
115.6797331040789
 21
135.1084974276239
 31
0.0
 11
115.7958282831837
 21
134.6315713983835
 31
0.0
 11
115.969263698689
 21
134.1604827445329
 31
0.0
  0
SPLINE
  5
3BC
330
1F
100
AcDbEntity
  8
0
  6
Continuous
 62
     7
100
AcDbSpline
210
0.0
220
0.0
230
1.0
 70
     8
 71
     3
 72
     9
 73
     5
 74
     3
 42
0.000000001
 43
0.0000000001
 44
0.00000001
 40
0.0
 40
0.0
 40
0.0
 40
0.0
 40
0.5244020404166542
 40
1.067148448401984
 40
1.067148448401984
 40
1.067148448401984
 40
1.067148448401984
 10
115.8012035490612
 20
134.1362905549729
 30
0.0
 10
115.8751581210262
 20
133.9776012670787
 30
0.0
 10
116.0256543241308
 20
133.6546715120091
 30
0.0
 10
116.2233567384499
 20
133.3582540937965
 30
0.0
 10
116.3239072145295
 20
133.2074976702593
 30
0.0
 11
115.8012035490612
 21
134.1362905549729
 31
0.0
 11
116.0344665744559
 21
133.6666248637531
 31
0.0
 11
116.3239072145295
 21
133.2074976702593
 31
0.0
  0
SPLINE
  5
3BD
330
1F
100
AcDbEntity
  8
0
  6
Continuous
 62
     7
100
AcDbSpline
210
0.0
220
0.0
230
1.0
 70
     8
 71
     3
 72
     9
 73
     5
 74
     3
 42
0.000000001
 43
0.0000000001
 44
0.00000001
 40
0.0
 40
0.0
 40
0.0
 40
0.0
 40
0.4885929532093202
 40
0.9795576264628296
 40
0.9795576264628296
 40
0.9795576264628296
 40
0.9795576264628296
 10
115.4484441998925
 20
136.0740403010882
 30
0.0
 10
115.4435604298487
 20
135.9108813067889
 30
0.0
 10
115.4337692029709
 20
135.583771315025
 30
0.0
 10
115.4828680073463
 20
135.2602146254227
 30
0.0
 10
115.5074768588772
 20
135.098044581297
 30
0.0
 11
115.4484441998925
 21
136.0740403010882
 31
0.0
 11
115.4484442010532
 21
135.5854473472766
 31
0.0
 11
115.5074768588772
 21
135.098044581297
 31
0.0
  0
SPLINE
  5
3BE
330
1F
100
AcDbEntity
  8
0
  6
Continuous
 62
     7
100
AcDbSpline
210
0.0
220
0.0
230
1.0
 70
     8
 71
     3
 72
     9
 73
     5
 74
     3
 42
0.000000001
 43
0.0000000001
 44
0.00000001
 40
0.0
 40
0.0
 40
0.0
 40
0.0
 40
0.509275729234426
 40
1.033677768955839
 40
1.033677768955839
 40
1.033677768955839
 40
1.033677768955839
 10
70.72941364573046
 20
137.0452810678392
 30
0.0
 10
70.67491776781694
 20
137.2063763097622
 30
0.0
 10
70.56430737799056
 20
137.533351574715
 30
0.0
 10
70.40236018156483
 20
137.8382053596061
 30
0.0
 10
70.32020164804476
 20
137.9928627847953
 30
0.0
 11
70.72941364573046
 21
137.0452810678392
 31
0.0
 11
70.5534646712081
 21
137.5231970932062
 31
0.0
 11
70.32020164804476
 21
137.9928627847953
 31
0.0
  0
SPLINE
  5
3BF
330
1F
100
AcDbEntity
  8
0
  6
Continuous
 62
     7
100
AcDbSpline
210
0.0
220
0.0
230
1.0
 70
     8
 71
     3
 72
     9
 73
     5
 74
     3
 42
0.000000001
 43
0.0000000001
 44
0.00000001
 40
0.0
 40
0.0
 40
0.0
 40
0.0
 40
0.5427464079854127
 40
1.067148448402086
 40
1.067148448402086
 40
1.067148448402086
 40
1.067148448402086
 10
70.03076100686678
 20
133.2074976702594
 30
0.0
 10
70.13131148294634
 20
133.3582540937965
 30
0.0
 10
70.32901389726547
 20
133.6546715120094
 30
0.0
 10
70.47951010036999
 20
133.977601267079
 30
0.0
 10
70.55346467233494
 20
134.1362905549732
 30
0.0
 11
70.03076100686678
 21
133.2074976702594
 31
0.0
 11
70.32020164694026
 21
133.6666248637534
 31
0.0
 11
70.55346467233494
 21
134.1362905549732
 31
0.0
  0
SPLINE
  5
3C0
330
1F
100
AcDbEntity
  8
0
  6
Continuous
 62
     7
100
AcDbSpline
210
0.0
220
0.0
230
1.0
 70
     8
 71
     3
 72
     9
 73
     5
 74
     3
 42
0.000000001
 43
0.0000000001
 44
0.00000001
 40
0.0
 40
0.0
 40
0.0
 40
0.0
 40
0.5020003611218006
 40
0.9928532183194592
 40
0.9928532183194592
 40
0.9928532183194592
 40
0.9928532183194592
 10
70.38540452270729
 20
134.1604827445329
 30
0.0
 10
70.44782614930293
 20
134.3161076502147
 30
0.0
 10
70.57128323851106
 20
134.6239016352545
 30
0.0
 10
70.64064408605384
 20
134.9481791302367
 30
0.0
 10
70.67493511731715
 20
135.1084974276239
 30
0.0
 11
70.38540452270729
 21
134.1604827445329
 31
0.0
 11
70.55883993821246
 21
134.6315713983836
 31
0.0
 11
70.67493511731715
 21
135.1084974276239
 31
0.0
  0
SPLINE
  5
3C1
330
1F
100
AcDbEntity
  8
0
  6
Continuous
 62
     7
100
AcDbSpline
210
0.0
220
0.0
230
1.0
 70
     8
 71
     3
 72
     9
 73
     5
 74
     3
 42
0.000000001
 43
0.0000000001
 44
0.00000001
 40
0.0
 40
0.0
 40
0.0
 40
0.0
 40
0.5780976035452952
 40
1.133702377970734
 40
1.133702377970734
 40
1.133702377970734
 40
1.133702377970734
 10
69.13925419839609
 20
132.3797438241707
 30
0.0
 10
69.27307537321595
 20
132.5187240334824
 30
0.0
 10
69.53551094554246
 20
132.7912769734161
 30
0.0
 10
69.76010098887684
 20
133.095744769375
 30
0.0
 10
69.87016805245997
 20
133.2449583296009
 30
0.0
 11
69.13925419839609
 21
132.3797438241707
 31
0.0
 11
69.53087717810808
 21
132.8049829116159
 31
0.0
 11
69.87016805245997
 21
133.2449583296009
 31
0.0
  0
SPLINE
  5
3C2
330
1F
100
AcDbEntity
  8
0
  6
Continuous
 62
     7
100
AcDbSpline
210
0.0
220
0.0
230
1.0
 70
     8
 71
     3
 72
     9
 73
     5
 74
     3
 42
0.000000001
 43
0.0000000001
 44
0.00000001
 40
0.0
 40
0.0
 40
0.0
 40
0.0
 40
0.6353555390165019
 40
1.245926453180533
 40
1.245926453180533
 40
1.245926453180533
 40
1.245926453180533
 10
68.34337683349844
 20
131.5201134968911
 30
0.0
 10
68.51179960349961
 20
131.6488231818604
 30
0.0
 10
68.84207511616358
 20
131.9012217228686
 30
0.0
 10
69.14218448651971
 20
132.1888100718033
 30
0.0
 10
69.28925419839618
 20
132.3297438241707
 30
0.0
 11
68.34337683349844
 21
131.5201134968911
 31
0.0
 11
68.84080057677559
 21
131.9153935002505
 31
0.0
 11
69.28925419839618
 21
132.3297438241707
 31
0.0
  0
SPLINE
  5
3C3
330
1F
100
AcDbEntity
  8
0
  6
Continuous
 62
     7
100
AcDbSpline
210
0.0
220
0.0
230
1.0
 70
     8
 71
     3
 72
     9
 73
     5
 74
     3
 42
0.000000001
 43
0.0000000001
 44
0.00000001
 40
0.0
 40
0.0
 40
0.0
 40
0.0
 40
0.5556047744253249
 40
1.133702377970405
 40
1.133702377970405
 40
1.133702377970405
 40
1.133702377970405
 10
116.4845001689362
 20
133.2449583296009
 30
0.0
 10
116.5945672325193
 20
133.0957447693749
 30
0.0
 10
116.8191572758535
 20
132.7912769734163
 30
0.0
 10
117.0815928481801
 20
132.5187240334826
 30
0.0
 10
117.2154140229999
 20
132.379743824171
 30
0.0
 11
116.4845001689362
 21
133.2449583296009
 31
0.0
 11
116.823791043288
 21
132.8049829116159
 31
0.0
 11
117.2154140229999
 21
132.379743824171
 31
0.0
  0
SPLINE
  5
3C4
330
1F
100
AcDbEntity
  8
0
  6
Continuous
 62
     7
100
AcDbSpline
210
0.0
220
0.0
230
1.0
 70
     8
 71
     3
 72
     9
 73
     5
 74
     3
 42
0.000000001
 43
0.0000000001
 44
0.00000001
 40
0.0
 40
0.0
 40
0.0
 40
0.0
 40
0.6105709141639866
 40
1.245926453180431
 40
1.245926453180431
 40
1.245926453180431
 40
1.245926453180431
 10
117.0654140230001
 20
132.3297438241707
 30
0.0
 10
117.2124837348765
 20
132.1888100718033
 30
0.0
 10
117.5125931052326
 20
131.9012217228686
 30
0.0
 10
117.8428686178965
 20
131.6488231818604
 30
0.0
 10
118.0112913878977
 20
131.5201134968911
 30
0.0
 11
117.0654140230001
 21
132.3297438241707
 31
0.0
 11
117.5138676446206
 21
131.9153935002504
 31
0.0
 11
118.0112913878977
 21
131.5201134968911
 31
0.0
  0
ARC
  5
3C5
102
{ACAD_REACTORS
330
41B
102
}
330
1F
100
AcDbEntity
  8
1
  6
Continuous
 62
     7
100
AcDbCircle
 10
278.6763006887427
 20
12.83333333333326
 30
0.0
 40
0.166666666666709
100
AcDbArc
 50
209.9999999999622
 51
330.000000000028
  0
ARC
  5
3C6
102
{ACAD_REACTORS
330
41C
102
}
330
1F
100
AcDbEntity
  8
1
  6
Continuous
 62
     7
100
AcDbCircle
 10
276.3429673554093
 20
10.2700211480327
 30
0.0
 40
0.6666666666666288
100
AcDbArc
 50
180.0000000000104
 51
240.018360631158
  0
ARC
  5
3C7
330
1F
100
AcDbEntity
  8
1
  6
Continuous
 62
     7
100
AcDbCircle
 10
270.3431524891828
 20
12.5
 30
0.0
 40
0.1666666666666123
100
AcDbArc
 50
119.9816393688877
 51
240.0183606311327
  0
ARC
  5
3C8
330
1F
100
AcDbEntity
  8
1
  6
Continuous
 62
     7
100
AcDbCircle
 10
287.0094488883026
 20
12.5
 30
0.0
 40
0.1666666666666302
100
AcDbArc
 50
299.9816393688164
 51
60.01836063116308
  0
ARC
  5
3C9
102
{ACAD_REACTORS
330
41E
102
}
330
1F
100
AcDbEntity
  8
1
  6
Continuous
 62
     7
100
AcDbCircle
 10
281.3429673554093
 20
14.92250016016737
 30
0.0
 40
0.3333333333333456
100
AcDbArc
 50
60.01836063115814
 51
180.0
  0
ARC
  5
3CA
102
{ACAD_REACTORS
330
41E
102
}
330
1F
100
AcDbEntity
  8
1
  6
Continuous
 62
     7
100
AcDbCircle
 10
281.3429673554093
 20
10.07749983983263
 30
0.0
 40
0.3333333333332007
100
AcDbArc
 50
180.0
 51
299.9816393688419
  0
MTEXT
  5
3CC
330
1F
100
AcDbEntity
  8
1
 62
     7
100
AcDbMText
 10
93.17733434618697
 20
61.32974382295038
 30
0.0
 40
3.5
 41
0.0
 71
     2
 72
     1
  1
 
  7
CONVERTER_11
 73
     1
 44
1.32052821128451
  0
MTEXT
  5
3CD
330
1F
100
AcDbEntity
  8
1
 62
     7
100
AcDbMText
 10
224.2273303120045
 20
61.32974382295061
 30
0.0
 40
3.5
 41
0.0
 71
     2
 72
     1
  1
 
  7
CONVERTER_11
 73
     1
 44
1.32052821128451
  0
MTEXT
  5
3CF
330
1F
100
AcDbEntity
  8
1
 62
     7
100
AcDbMText
 10
256.6763006887427
 20
10.06063942075605
 30
0.0
 40
4.5
 41
0.0
 71
     5
 72
     1
  1
1:1
  7
CONVERTER_12
 73
     1
 44
1.32052821128451
  0
MTEXT
  5
3D0
330
1F
100
AcDbEntity
  8
1
 62
     7
100
AcDbMText
 10
119.6
 20
7.49999999999987
 30
0.0
 40
3.0
 41
0.0
 71
     4
 72
     1
  1
M.Pezzimenti
  7
CONVERTER_12
 73
     1
 44
1.32052821128451
  0
MTEXT
  5
3D1
330
1F
100
AcDbEntity
  8
1
 62
     7
100
AcDbMText
 10
119.6
 20
12.49999999999987
 30
0.0
 40
3.0
 41
0.0
 71
     4
 72
     1
  1
14/05/15
  7
CONVERTER_12
 73
     1
 44
1.32052821128451
  0
MTEXT
  5
3D2
330
1F
100
AcDbEntity
  8
1
 62
     7
100
AcDbMText
 10
144.2763006887427
 20
12.5
 30
0.0
 40
4.5
 41
0.0
 71
     4
 72
     1
  1
CZV 15 LG\PHood top entry 1 lev. PG13,5 
  7
CONVERTER_12
 73
     1
 44
0.90036014405762
  0
MTEXT
  5
3D3
330
1F
100
AcDbEntity
  8
1
 62
     7
100
AcDbMText
 10
109.0
 20
7.49999999999987
 30
0.0
 40
3.0
 41
0.0
 71
     4
 72
     1
  1
Sign.
  7
CONVERTER_12
 73
     1
 44
1.32052821128451
  0
MTEXT
  5
3D4
330
1F
100
AcDbEntity
  8
1
 62
     7
100
AcDbMText
 10
109.0
 20
12.49999999999987
 30
0.0
 40
3.0
 41
0.0
 71
     4
 72
     1
  1
Date
  7
CONVERTER_12
 73
     1
 44
1.32052821128451
  0
MTEXT
  5
3D6
330
1F
100
AcDbEntity
  8
1
 62
     7
100
AcDbMText
 10
123.0
 20
17.49999999999994
 30
0.0
 40
2.5
 41
0.0
 71
     5
 72
     1
  1
dimensions in mm
  7
CONVERTER_13
 73
     1
 44
0.60024009603842
  0
MTEXT
  5
3D7
330
1F
100
AcDbEntity
  8
1
 62
     7
100
AcDbMText
 10
151.4999999999997
 20
194.0000000000001
 30
0.0
 40
4.0
 41
0.0
 71
     5
 72
     1
  1
Diritti riservati      All rights reserved
  7
CONVERTER_12
 73
     1
 44
1.32052821128451
  0
MTEXT
  5
3D8
330
1F
100
AcDbEntity
  8
1
 62
     7
100
AcDbMText
 10
256.6763006887427
 20
16.26063942075598
 30
0.0
 40
3.0
 41
0.0
 71
     5
 72
     1
  1
Scale
  7
CONVERTER_12
 73
     1
 44
1.32052821128451
  0
DIMENSION
  5
3E3
330
1F
100
AcDbEntity
  8
1
100
AcDbDimension
  2
*D2
 10
186.338125933392
 20
81.32974382417427
 30
0.0
 11
182.838125933392
 21
103.3297438241743
 31
0.0
 70
    32
  1
<>
 71
     5
 42
-1.0
 53
90.0
  3
ME10_DIM_10
100
AcDbAlignedDimension
 13
202.3773347032661
 23
125.3297438241743
 33
0.0
 14
208.8773347032661
 24
81.32974382417424
 34
0.0
 50
90.0
100
AcDbRotatedDimension
  0
DIMENSION
  5
3EE
330
1F
100
AcDbEntity
  8
1
100
AcDbDimension
  2
*D3
 10
169.952689948045
 20
66.32974382417427
 30
0.0
 11
166.452689948045
 21
95.8297438241743
 31
0.0
 70
    32
  1
<>
 71
     5
 42
-1.0
 53
90.0
  3
ME10_DIM_11
100
AcDbAlignedDimension
 13
202.3773347032661
 23
125.3297438241743
 33
0.0
 14
206.5684099247688
 24
66.32974382417424
 34
0.0
 50
90.0
100
AcDbRotatedDimension
  0
DIMENSION
  5
3F9
330
1F
100
AcDbEntity
  8
1
100
AcDbDimension
  2
*D4
 10
130.677334110698
 20
172.8297438241723
 30
0.0
 11
93.17733411069793
 21
176.3297438241723
 31
0.0
 70
    32
  1
<>
 71
     5
 42
-1.0
 53
0.00013888888889
  3
ME10_DIM_12
100
AcDbAlignedDimension
 13
55.67733411069787
 23
142.3297438241723
 33
0.0
 14
130.677334110698
 24
142.3297438241723
 34
0.0
100
AcDbRotatedDimension
  0
DIMENSION
  5
404
330
1F
100
AcDbEntity
  8
1
100
AcDbDimension
  2
*D5
 10
61.67733457743827
 20
157.8297438241723
 30
0.0
 11
93.17733457743827
 21
161.3297438241723
 31
0.0
 70
    32
  1
<>
 71
     5
 42
-1.0
 53
0.00013888888889
  3
ME10_DIM_13
100
AcDbAlignedDimension
 13
124.6773345774383
 23
124.3876505441709
 33
0.0
 14
61.67733457743827
 24
124.3876514798211
 34
0.0
100
AcDbRotatedDimension
  0
DIMENSION
  5
40F
330
1F
100
AcDbEntity
  8
1
100
AcDbDimension
  2
*D6
 10
101.1773345774383
 20
49.1157591658905
 30
0.0
 11
93.17733457743827
 21
52.7657591658905
 31
0.0
 70
    32
  1
PG13,5
 71
     5
 42
-1.0
 53
0.00013888888889
  3
ME10_DIM_14
100
AcDbAlignedDimension
 13
85.17733457743827
 23
66.32974382417427
 33
0.0
 14
101.1773345774383
 24
66.32974382417427
 34
0.0
100
AcDbRotatedDimension
  0
DIMENSION
  5
41A
330
1F
100
AcDbEntity
  8
1
100
AcDbDimension
  2
*D7
 10
202.3773347032661
 20
157.8297438241723
 30
0.0
 11
228.7422622716786
 21
161.3297438241723
 31
0.0
 70
    32
  1
53
 71
     5
 42
-1.0
 53
0.00013888888889
  3
ME10_DIM_15
100
AcDbAlignedDimension
 13
255.1071898400911
 23
114.2297438241738
 33
0.0
 14
202.3773347032661
 24
125.3297438241743
 34
0.0
100
AcDbRotatedDimension
  0
HATCH
  5
41B
330
1F
100
AcDbEntity
  8
1
  6
Continuous
 62
     7
100
AcDbHatch
 10
0.0
 20
0.0
 30
0.0
210
0.0
220
0.0
230
1.0
  2
SOLID
 70
     1
 71
     1
 91
        1
 92
        1
 93
       16
 72
     2
 10
280.078001142934
 20
15.73121731203457
 40
0.2649662124753149
 50
210.0000000000315
 51
360.0
 73
     0
 72
     1
 10
280.3429673554093
 20
15.73121731203457
 11
280.3429673554093
 21
9.308269070601796
 72
     2
 10
280.0096340220761
 20
9.308269070601796
 40
0.3333333333334281
 50
0.0
 51
180.0
 73
     0
 72
     1
 10
279.6763006887427
 20
9.308269070601796
 11
279.6763006887427
 21
12.5
 72
     1
 10
279.6763006887427
 20
12.5
 11
279.6763006887427
 21
14.23205080756884
 72
     1
 10
279.6763006887427
 20
14.23205080756884
 11
278.8206382560401
 21
12.75
 72
     2
 10
278.6763006887427
 20
12.83333333333326
 40
0.166666666666709
 50
29.99999999997198
 51
150.0000000000378
 73
     0
 72
     1
 10
278.5319631214452
 20
12.75
 11
277.6763006887427
 21
14.23205080756884
 72
     1
 10
277.6763006887427
 20
14.23205080756884
 11
277.6763006887427
 21
12.5
 72
     1
 10
277.6763006887427
 20
12.5
 11
277.6763006887427
 21
10.84758507263291
 72
     2
 10
277.3429673554093
 20
10.84758507263291
 40
0.3333333333334281
 50
0.0
 51
180.0
 73
     0
 72
     1
 10
277.0096340220759
 20
10.84758507263291
 11
277.0096340220759
 21
12.5
 72
     1
 10
277.0096340220759
 20
12.5
 11
277.0096340220759
 21
15.73121731203457
 72
     2
 10
277.2746002345513
 20
15.73121731203457
 40
0.2649662124752854
 50
180.0
 51
329.9999999999808
 73
     0
 72
     1
 10
277.5040677056994
 20
15.86370041827229
 11
278.6763006887427
 21
13.83333333333326
 72
     1
 10
278.6763006887427
 20
13.83333333333326
 11
279.848533671786
 21
15.86370041827229
 97
       16
330
2DD
330
372
330
2DC
330
2DE
330
373
330
2DF
330
2D7
330
2D6
330
3C5
330
2D5
330
2D4
330
2E0
330
374
330
2E1
330
375
330
2E2
 75
     0
 76
     1
 98
        1
 10
0.0
 20
0.0
  0
HATCH
  5
41C
330
1F
100
AcDbEntity
  8
1
  6
Continuous
 62
     7
100
AcDbHatch
 10
0.0
 20
0.0
 30
0.0
210
0.0
220
0.0
230
1.0
  2
SOLID
 70
     1
 71
     1
 91
        1
 92
        1
 93
        7
 72
     2
 10
276.0096340220759
 20
14.92250016016737
 40
0.3333333333334281
 50
0.0
 51
180.0
 73
     1
 72
     1
 10
275.6763006887427
 20
14.92250016016737
 11
275.6763006887427
 21
10.27002114803258
 72
     2
 10
276.3429673554093
 20
10.2700211480327
 40
0.6666666666666288
 50
180.0000000000104
 51
240.018360631158
 73
     1
 72
     1
 10
276.009819053083
 20
9.692564090666906
 11
278.1763932042461
 21
8.442617464995806
 72
     2
 10
278.3429673554093
 20
8.731345993678701
 40
0.3333333333333709
 50
240.0183606311493
 51
420.0183606311578
 73
     1
 72
     1
 10
278.5095415065725
 20
9.020074522361597
 11
276.3429673554093
 21
10.2700211480327
 72
     1
 10
276.3429673554093
 20
10.2700211480327
 11
276.3429673554093
 21
14.92250016016737
 97
        7
330
376
330
2E3
330
3C6
330
2E6
330
377
330
2E5
330
2E4
 75
     0
 76
     1
 98
        1
 10
0.0
 20
0.0
  0
HATCH
  5
41D
330
1F
100
AcDbEntity
  8
1
  6
Continuous
 62
     7
100
AcDbHatch
 10
0.0
 20
0.0
 30
0.0
210
0.0
220
0.0
230
1.0
  2
SOLID
 70
     1
 71
     1
 91
        1
 92
        1
 93
        5
 72
     2
 10
274.6763006887427
 20
14.15326939093666
 40
0.3333333333332007
 50
0.0
 51
180.0
 73
     1
 72
     1
 10
274.3429673554093
 20
14.15326939093666
 11
274.3429673554093
 21
10.84673060906323
 72
     2
 10
274.6763006887427
 20
10.84673060906323
 40
0.3333333333333712
 50
180.0
 51
360.0
 73
     1
 72
     1
 10
275.0096340220759
 20
10.84673060906323
 11
275.0096340220759
 21
11.0392519172633
 72
     1
 10
275.0096340220759
 20
11.0392519172633
 11
275.0096340220759
 21
14.15326939093666
 97
        5
330
378
330
2E9
330
379
330
2E8
330
2E7
 75
     0
 76
     1
 98
        1
 10
0.0
 20
0.0
  0
HATCH
  5
41E
330
1F
100
AcDbEntity
  8
1
  6
Continuous
 62
     7
100
AcDbHatch
 10
0.0
 20
0.0
 30
0.0
210
0.0
220
0.0
230
1.0
  2
SOLID
 70
     1
 71
     1
 91
        1
 92
        1
 93
       14
 72
     2
 10
281.3429673554093
 20
14.92250016016737
 40
0.3333333333333456
 50
60.01836063115814
 51
180.0
 73
     1
 72
     1
 10
281.0096340220761
 20
14.92250016016737
 11
281.0096340220761
 21
10.07749983983263
 72
     2
 10
281.3429673554093
 20
10.07749983983263
 40
0.3333333333332007
 50
180.0
 51
299.9816393688419
 73
     1
 72
     1
 10
281.5095415065725
 20
9.78877131114973
 11
282.8428748399058
 21
10.55800208038033
 72
     2
 10
282.6763006887427
 20
10.84673060906323
 40
0.3333333333333172
 50
299.9816393688334
 51
479.9816393688322
 73
     1
 72
     1
 10
282.5097265375795
 20
11.13545913774624
 11
281.6763006887427
 21
10.65463653264794
 72
     1
 10
281.6763006887427
 20
10.65463653264794
 11
281.6763006887427
 21
12.16666666666663
 72
     1
 10
281.6763006887427
 20
12.16666666666663
 11
282.6763006887427
 21
12.16666666666663
 72
     2
 10
282.6763006887427
 20
12.5
 40
0.3333333333333695
 50
270.0
 51
450.0
 73
     1
 72
     1
 10
282.6763006887427
 20
12.83333333333326
 11
281.6763006887427
 21
12.83333333333326
 72
     1
 10
281.6763006887427
 20
12.83333333333326
 11
281.6763006887427
 21
14.34536346735195
 72
     1
 10
281.6763006887427
 20
14.34536346735195
 11
282.5097265375795
 21
13.86454086225376
 72
     2
 10
282.6763006887427
 20
14.15326939093666
 40
0.3333333333333471
 50
240.0183606311583
 51
420.0183606311564
 73
     1
 72
     1
 10
282.8428748399058
 20
14.44199791961944
 11
281.5095415065725
 21
15.21122868885027
 97
       14
330
37A
330
2EB
330
2EC
330
2ED
330
37B
330
2EE
330
2EF
330
2F0
330
37C
330
2F1
330
3CA
330
2D3
330
3C9
330
2EA
 75
     0
 76
     1
 98
        1
 10
0.0
 20
0.0
  0
ENDSEC
  0
SECTION
  2
OBJECTS
  0
DICTIONARY
  5
C
330
0
100
AcDbDictionary
281
     1
  3
ACAD_GROUP
350
D
  3
ACAD_LAYOUT
350
1A
  3
ACAD_MATERIAL
350
3B
  3
ACAD_MLEADERSTYLE
350
421
  3
ACAD_MLINESTYLE
350
17
  3
ACAD_PLOTSETTINGS
350
19
  3
ACAD_PLOTSTYLENAME
350
E
  3
ACAD_VISUALSTYLE
350
2A
  3
AcDbVariableDictionary
350
41F
  0
DICTIONARY
  5
D
102
{ACAD_REACTORS
330
C
102
}
330
C
100
AcDbDictionary
281
     1
  0
DICTIONARY
  5
1A
102
{ACAD_REACTORS
330
C
102
}
330
C
100
AcDbDictionary
281
     1
  3
Layout1
350
1E
  3
Layout2
350
26
  3
Model
350
22
  0
DICTIONARY
  5
3B
102
{ACAD_REACTORS
330
C
102
}
330
C
100
AcDbDictionary
281
     1
  3
ByBlock
350
3D
  3
ByLayer
350
3C
  3
Global
350
3E
  0
DICTIONARY
  5
421
102
{ACAD_REACTORS
330
C
102
}
330
C
100
AcDbDictionary
281
     1
  0
DICTIONARY
  5
17
102
{ACAD_REACTORS
330
C
102
}
330
C
100
AcDbDictionary
281
     1
  3
Standard
350
18
  0
DICTIONARY
  5
19
102
{ACAD_REACTORS
330
C
102
}
330
C
100
AcDbDictionary
281
     1
  0
ACDBDICTIONARYWDFLT
  5
E
102
{ACAD_REACTORS
330
C
102
}
330
C
100
AcDbDictionary
281
     1
  3
Normal
350
F
100
AcDbDictionaryWithDefault
340
F
  0
DICTIONARY
  5
2A
102
{ACAD_REACTORS
330
C
102
}
330
C
100
AcDbDictionary
281
     1
  3
2dWireframe
350
2F
  3
3D Hidden
350
31
  3
3dWireframe
350
30
  3
Basic
350
32
  3
Brighten
350
36
  3
ColorChange
350
3A
  3
Conceptual
350
34
  3
Dim
350
35
  3
Facepattern
350
39
  3
Flat
350
2B
  3
FlatWithEdges
350
2C
  3
Gouraud
350
2D
  3
GouraudWithEdges
350
2E
  3
Linepattern
350
38
  3
Realistic
350
33
  3
Thicken
350
37
  0
DICTIONARY
  5
41F
102
{ACAD_REACTORS
330
C
102
}
330
C
100
AcDbDictionary
281
     1
  3
DIMASSOC
350
422
  3
HIDETEXT
350
423
  0
LAYOUT
  5
1E
102
{ACAD_REACTORS
330
1A
102
}
330
1A
100
AcDbPlotSettings
  1

  2
none_device
  4

  6

 40
0.0
 41
0.0
 42
0.0
 43
0.0
 44
0.0
 45
0.0
 46
0.0
 47
0.0
 48
0.0
 49
0.0
140
0.0
141
0.0
142
1.0
143
1.0
 70
   688
 72
     0
 73
     0
 74
     5
  7

 75
    16
147
1.0
148
0.0
149
0.0
100
AcDbLayout
  1
Layout1
 70
     1
 71
     1
 10
0.0
 20
0.0
 11
12.0
 21
9.0
 12
0.0
 22
0.0
 32
0.0
 14
1.00000000000000E+20
 24
1.00000000000000E+20
 34
1.00000000000000E+20
 15
-1.00000000000000E+20
 25
-1.00000000000000E+20
 35
-1.00000000000000E+20
146
0.0
 13
0.0
 23
0.0
 33
0.0
 16
1.0
 26
0.0
 36
0.0
 17
0.0
 27
1.0
 37
0.0
 76
     0
330
1B
  0
LAYOUT
  5
26
102
{ACAD_REACTORS
330
1A
102
}
330
1A
100
AcDbPlotSettings
  1

  2
none_device
  4

  6

 40
0.0
 41
0.0
 42
0.0
 43
0.0
 44
0.0
 45
0.0
 46
0.0
 47
0.0
 48
0.0
 49
0.0
140
0.0
141
0.0
142
1.0
143
1.0
 70
   688
 72
     0
 73
     0
 74
     5
  7

 75
    16
147
1.0
148
0.0
149
0.0
100
AcDbLayout
  1
Layout2
 70
     1
 71
     2
 10
0.0
 20
0.0
 11
0.0
 21
0.0
 12
0.0
 22
0.0
 32
0.0
 14
0.0
 24
0.0
 34
0.0
 15
0.0
 25
0.0
 35
0.0
146
0.0
 13
0.0
 23
0.0
 33
0.0
 16
1.0
 26
0.0
 36
0.0
 17
0.0
 27
1.0
 37
0.0
 76
     0
330
23
  0
LAYOUT
  5
22
102
{ACAD_REACTORS
330
1A
102
}
330
1A
100
AcDbPlotSettings
  1

  2
none_device
  4

  6

 40
0.0
 41
0.0
 42
0.0
 43
0.0
 44
0.0
 45
0.0
 46
0.0
 47
0.0
 48
0.0
 49
0.0
140
0.0
141
0.0
142
1.0
143
1.0
 70
  1712
 72
     0
 73
     0
 74
     0
  7

 75
     0
147
1.0
148
0.0
149
0.0
100
AcDbLayout
  1
Model
 70
     1
 71
     0
 10
0.0
 20
0.0
 11
12.0
 21
9.0
 12
0.0
 22
0.0
 32
0.0
 14
-0.00000000000011
 24
0.0
 34
0.0
 15
297.0
 25
210.0000000000001
 35
0.0
146
0.0
 13
0.0
 23
0.0
 33
0.0
 16
1.0
 26
0.0
 36
0.0
 17
0.0
 27
1.0
 37
0.0
 76
     0
330
1F
331
29
  0
MATERIAL
  5
3D
102
{ACAD_REACTORS
330
3B
102
}
102
{ACAD_XDICTIONARY
360
446
102
}
330
3B
100
AcDbMaterial
  1
ByBlock
  0
MATERIAL
  5
3C
102
{ACAD_REACTORS
330
3B
102
}
102
{ACAD_XDICTIONARY
360
444
102
}
330
3B
100
AcDbMaterial
  1
ByLayer
  0
MATERIAL
  5
3E
102
{ACAD_REACTORS
330
3B
102
}
102
{ACAD_XDICTIONARY
360
448
102
}
330
3B
100
AcDbMaterial
  1
Global
  0
MLINESTYLE
  5
18
102
{ACAD_REACTORS
330
17
102
}
330
17
100
AcDbMlineStyle
  2
Standard
 70
     0
  3

 62
   256
 51
90.0
 52
90.0
 71
     2
 49
0.5
 62
   256
  6
BYLAYER
 49
-0.5
 62
   256
  6
BYLAYER
  0
ACDBPLACEHOLDER
  5
F
102
{ACAD_REACTORS
330
E
102
}
330
E
  0
VISUALSTYLE
  5
2F
102
{ACAD_REACTORS
330
2A
102
}
102
{ACAD_XDICTIONARY
360
42C
102
}
330
2A
100
AcDbVisualStyle
  2
2dWireframe
 70
     4
 71
     0
 72
     2
 73
     0
 90
        0
 40
-0.6
 41
-30.0
 62
     5
 63
     7
 74
     1
 91
        4
 64
     7
 65
   257
 75
     1
175
     1
 42
1.0
 92
        0
 66
   257
 43
1.0
 76
     1
 77
     6
 78
     2
 67
     7
 79
     5
170
     0
171
     0
290
     0
174
     0
 93
        1
 44
0.0
173
     0
291
     0
 45
0.0
1001
ACAD
1000
AcDbSavedByObjectVersion
1070
     0
  0
VISUALSTYLE
  5
31
102
{ACAD_REACTORS
330
2A
102
}
102
{ACAD_XDICTIONARY
360
430
102
}
330
2A
100
AcDbVisualStyle
  2
3D Hidden
 70
     6
 71
     1
 72
     2
 73
     2
 90
        0
 40
-0.6
 41
-30.0
 62
     5
 63
     7
 74
     2
 91
        2
 64
     7
 65
   257
 75
     2
175
     1
 42
40.0
 92
        0
 66
   257
 43
1.0
 76
     1
 77
     6
 78
     2
 67
     7
 79
     3
170
     0
171
     0
290
     0
174
     0
 93
        1
 44
0.0
173
     0
291
     0
 45
0.0
1001
ACAD
1000
AcDbSavedByObjectVersion
1070
     0
  0
VISUALSTYLE
  5
30
102
{ACAD_REACTORS
330
2A
102
}
102
{ACAD_XDICTIONARY
360
42E
102
}
330
2A
100
AcDbVisualStyle
  2
3dWireframe
 70
     5
 71
     0
 72
     2
 73
     0
 90
        0
 40
-0.6
 41
-30.0
 62
     5
 63
     7
 74
     1
 91
        4
 64
     7
 65
   257
 75
     1
175
     1
 42
1.0
 92
        0
 66
   257
 43
1.0
 76
     1
 77
     6
 78
     2
 67
     7
 79
     5
170
     0
171
     0
290
     0
174
     0
 93
        1
 44
0.0
173
     0
291
     0
 45
0.0
1001
ACAD
1000
AcDbSavedByObjectVersion
1070
     0
  0
VISUALSTYLE
  5
32
102
{ACAD_REACTORS
330
2A
102
}
102
{ACAD_XDICTIONARY
360
432
102
}
330
2A
100
AcDbVisualStyle
  2
Basic
 70
     7
 71
     1
 72
     0
 73
     1
 90
        0
 40
-0.6
 41
-30.0
 62
     5
 63
     7
 74
     0
 91
        4
 64
     7
 65
   257
 75
     1
175
     1
 42
1.0
 92
        8
 66
     7
 43
1.0
 76
     1
 77
     6
 78
     2
 67
     7
 79
     5
170
     0
171
     0
290
     0
174
     0
 93
        1
 44
0.0
173
     0
291
     1
 45
0.0
1001
ACAD
1000
AcDbSavedByObjectVersion
1070
     0
  0
VISUALSTYLE
  5
36
102
{ACAD_REACTORS
330
2A
102
}
102
{ACAD_XDICTIONARY
360
43A
102
}
330
2A
100
AcDbVisualStyle
  2
Brighten
 70
    12
 71
     2
 72
     2
 73
     0
 90
        0
 40
-0.6
 41
-30.0
 62
     5
 63
     7
 74
     1
 91
        4
 64
     7
 65
   257
 75
     1
175
     1
 42
1.0
 92
        8
 66
     7
 43
1.0
 76
     1
 77
     6
 78
     2
 67
     7
 79
     5
170
     0
171
     0
290
     0
174
     0
 93
        1
 44
50.0
173
     0
291
     1
 45
0.0
1001
ACAD
1000
AcDbSavedByObjectVersion
1070
     0
  0
VISUALSTYLE
  5
3A
102
{ACAD_REACTORS
330
2A
102
}
102
{ACAD_XDICTIONARY
360
442
102
}
330
2A
100
AcDbVisualStyle
  2
ColorChange
 70
    16
 71
     2
 72
     2
 73
     3
 90
        0
 40
-0.6
 41
-30.0
 62
     5
 63
     8
 74
     1
 91
        4
 64
     7
 65
   257
 75
     1
175
     1
 42
1.0
 92
        8
 66
     8
 43
1.0
 76
     1
 77
     6
 78
     2
 67
     7
 79
     5
170
     0
171
     0
290
     0
174
     0
 93
        1
 44
0.0
173
     0
291
     1
 45
0.0
1001
ACAD
1000
AcDbSavedByObjectVersion
1070
     0
  0
VISUALSTYLE
  5
34
102
{ACAD_REACTORS
330
2A
102
}
102
{ACAD_XDICTIONARY
360
436
102
}
330
2A
100
AcDbVisualStyle
  2
Conceptual
 70
     9
 71
     3
 72
     2
 73
     0
 90
        0
 40
-0.6
 41
-30.0
 62
     5
 63
     7
 74
     2
 91
        2
 64
     7
 65
   257
 75
     1
175
     1
 42
40.0
 92
        8
 66
     7
 43
1.0
 76
     1
 77
     6
 78
     2
 67
     7
 79
     3
170
     0
171
     0
290
     0
174
     0
 93
        1
 44
0.0
173
     0
291
     0
 45
0.0
1001
ACAD
1000
AcDbSavedByObjectVersion
1070
     0
  0
VISUALSTYLE
  5
35
102
{ACAD_REACTORS
330
2A
102
}
102
{ACAD_XDICTIONARY
360
438
102
}
330
2A
100
AcDbVisualStyle
  2
Dim
 70
    11
 71
     2
 72
     2
 73
     0
 90
        0
 40
-0.6
 41
-30.0
 62
     5
 63
     7
 74
     1
 91
        4
 64
     7
 65
   257
 75
     1
175
     1
 42
1.0
 92
        8
 66
     7
 43
1.0
 76
     1
 77
     6
 78
     2
 67
     7
 79
     5
170
     0
171
     0
290
     0
174
     0
 93
        1
 44
-50.0
173
     0
291
     1
 45
0.0
1001
ACAD
1000
AcDbSavedByObjectVersion
1070
     0
  0
VISUALSTYLE
  5
39
102
{ACAD_REACTORS
330
2A
102
}
102
{ACAD_XDICTIONARY
360
440
102
}
330
2A
100
AcDbVisualStyle
  2
Facepattern
 70
    15
 71
     2
 72
     2
 73
     0
 90
        0
 40
-0.6
 41
-30.0
 62
     5
 63
     7
 74
     1
 91
        4
 64
     7
 65
   257
 75
     1
175
     1
 42
1.0
 92
        8
 66
     7
 43
1.0
 76
     1
 77
     6
 78
     2
 67
     7
 79
     5
170
     0
171
     0
290
     0
174
     0
 93
        1
 44
0.0
173
     0
291
     1
 45
0.0
1001
ACAD
1000
AcDbSavedByObjectVersion
1070
     0
  0
VISUALSTYLE
  5
2B
102
{ACAD_REACTORS
330
2A
102
}
102
{ACAD_XDICTIONARY
360
424
102
}
330
2A
100
AcDbVisualStyle
  2
Flat
 70
     0
 71
     2
 72
     1
 73
     1
 90
        2
 40
-0.6
 41
30.0
 62
     5
 63
     7
 74
     0
 91
        4
 64
     7
 65
   257
 75
     1
175
     1
 42
1.0
 92
        8
 66
     7
 43
1.0
 76
     1
 77
     6
 78
     2
 67
     7
 79
     5
170
     0
171
     0
290
     0
174
     0
 93
       13
 44
0.0
173
     0
291
     1
 45
0.0
1001
ACAD
1000
AcDbSavedByObjectVersion
1070
     0
  0
VISUALSTYLE
  5
2C
102
{ACAD_REACTORS
330
2A
102
}
102
{ACAD_XDICTIONARY
360
426
102
}
330
2A
100
AcDbVisualStyle
  2
FlatWithEdges
 70
     1
 71
     2
 72
     1
 73
     1
 90
        2
 40
-0.6
 41
30.0
 62
     5
 63
     7
 74
     1
 91
        4
 64
     7
 65
   257
 75
     1
175
     1
 42
1.0
 92
        0
 66
   257
 43
1.0
 76
     1
 77
     6
 78
     2
 67
     7
 79
     5
170
     0
171
     0
290
     0
174
     0
 93
       13
 44
0.0
173
     0
291
     1
 45
0.0
1001
ACAD
1000
AcDbSavedByObjectVersion
1070
     0
  0
VISUALSTYLE
  5
2D
102
{ACAD_REACTORS
330
2A
102
}
102
{ACAD_XDICTIONARY
360
428
102
}
330
2A
100
AcDbVisualStyle
  2
Gouraud
 70
     2
 71
     2
 72
     2
 73
     1
 90
        2
 40
-0.6
 41
30.0
 62
     5
 63
     7
 74
     0
 91
        4
 64
     7
 65
   257
 75
     1
175
     1
 42
1.0
 92
        0
 66
     7
 43
1.0
 76
     1
 77
     6
 78
     2
 67
     7
 79
     5
170
     0
171
     0
290
     0
174
     0
 93
       13
 44
0.0
173
     0
291
     1
 45
0.0
1001
ACAD
1000
AcDbSavedByObjectVersion
1070
     0
  0
VISUALSTYLE
  5
2E
102
{ACAD_REACTORS
330
2A
102
}
102
{ACAD_XDICTIONARY
360
42A
102
}
330
2A
100
AcDbVisualStyle
  2
GouraudWithEdges
 70
     3
 71
     2
 72
     2
 73
     1
 90
        2
 40
-0.6
 41
30.0
 62
     5
 63
     7
 74
     1
 91
        4
 64
     7
 65
   257
 75
     1
175
     1
 42
1.0
 92
        0
 66
   257
 43
1.0
 76
     1
 77
     6
 78
     2
 67
     7
 79
     5
170
     0
171
     0
290
     0
174
     0
 93
       13
 44
0.0
173
     0
291
     1
 45
0.0
1001
ACAD
1000
AcDbSavedByObjectVersion
1070
     0
  0
VISUALSTYLE
  5
38
102
{ACAD_REACTORS
330
2A
102
}
102
{ACAD_XDICTIONARY
360
43E
102
}
330
2A
100
AcDbVisualStyle
  2
Linepattern
 70
    14
 71
     2
 72
     2
 73
     0
 90
        0
 40
-0.6
 41
-30.0
 62
     5
 63
     7
 74
     1
 91
        4
 64
     7
 65
   257
 75
     7
175
     7
 42
1.0
 92
        8
 66
     7
 43
1.0
 76
     1
 77
     6
 78
     2
 67
     7
 79
     5
170
     0
171
     0
290
     0
174
     0
 93
        1
 44
0.0
173
     0
291
     1
 45
0.0
1001
ACAD
1000
AcDbSavedByObjectVersion
1070
     0
  0
VISUALSTYLE
  5
33
102
{ACAD_REACTORS
330
2A
102
}
102
{ACAD_XDICTIONARY
360
434
102
}
330
2A
100
AcDbVisualStyle
  2
Realistic
 70
     8
 71
     2
 72
     2
 73
     0
 90
        0
 40
-0.6
 41
-30.0
 62
     5
 63
     7
 74
     1
 91
        0
 64
     7
 65
   257
 75
     1
175
     1
 42
1.0
 92
        8
 66
     8
 43
1.0
 76
     1
 77
     6
 78
     2
 67
     7
 79
     5
170
     0
171
     0
290
     0
174
     0
 93
       13
 44
0.0
173
     0
291
     0
 45
0.0
1001
ACAD
1000
AcDbSavedByObjectVersion
1070
     0
  0
VISUALSTYLE
  5
37
102
{ACAD_REACTORS
330
2A
102
}
102
{ACAD_XDICTIONARY
360
43C
102
}
330
2A
100
AcDbVisualStyle
  2
Thicken
 70
    13
 71
     2
 72
     2
 73
     0
 90
        0
 40
-0.6
 41
-30.0
 62
     5
 63
     7
 74
     1
 91
        4
 64
     7
 65
   257
 75
     1
175
     1
 42
1.0
 92
       12
 66
     7
 43
1.0
 76
     1
 77
     6
 78
     2
 67
     7
 79
     5
170
     0
171
     0
290
     0
174
     0
 93
        1
 44
0.0
173
     0
291
     1
 45
0.0
1001
ACAD
1000
AcDbSavedByObjectVersion
1070
     0
  0
DICTIONARYVAR
  5
422
102
{ACAD_REACTORS
330
41F
102
}
330
41F
100
DictionaryVariables
280
     0
  1
2
  0
DICTIONARYVAR
  5
423
102
{ACAD_REACTORS
330
41F
102
}
330
41F
100
DictionaryVariables
280
     0
  1
1
  0
DICTIONARY
  5
446
330
3D
100
AcDbDictionary
280
     1
281
     1
  3
ACAD_XREC_ROUNDTRIP
360
447
  0
DICTIONARY
  5
444
330
3C
100
AcDbDictionary
280
     1
281
     1
  3
ACAD_XREC_ROUNDTRIP
360
445
  0
DICTIONARY
  5
448
330
3E
100
AcDbDictionary
280
     1
281
     1
  3
ACAD_XREC_ROUNDTRIP
360
449
  0
DICTIONARY
  5
42C
330
2F
100
AcDbDictionary
280
     1
281
     1
  3
ACAD_XREC_ROUNDTRIP
360
42D
  0
DICTIONARY
  5
430
330
31
100
AcDbDictionary
280
     1
281
     1
  3
ACAD_XREC_ROUNDTRIP
360
431
  0
DICTIONARY
  5
42E
330
30
100
AcDbDictionary
280
     1
281
     1
  3
ACAD_XREC_ROUNDTRIP
360
42F
  0
DICTIONARY
  5
432
330
32
100
AcDbDictionary
280
     1
281
     1
  3
ACAD_XREC_ROUNDTRIP
360
433
  0
DICTIONARY
  5
43A
330
36
100
AcDbDictionary
280
     1
281
     1
  3
ACAD_XREC_ROUNDTRIP
360
43B
  0
DICTIONARY
  5
442
330
3A
100
AcDbDictionary
280
     1
281
     1
  3
ACAD_XREC_ROUNDTRIP
360
443
  0
DICTIONARY
  5
436
330
34
100
AcDbDictionary
280
     1
281
     1
  3
ACAD_XREC_ROUNDTRIP
360
437
  0
DICTIONARY
  5
438
330
35
100
AcDbDictionary
280
     1
281
     1
  3
ACAD_XREC_ROUNDTRIP
360
439
  0
DICTIONARY
  5
440
330
39
100
AcDbDictionary
280
     1
281
     1
  3
ACAD_XREC_ROUNDTRIP
360
441
  0
DICTIONARY
  5
424
330
2B
100
AcDbDictionary
280
     1
281
     1
  3
ACAD_XREC_ROUNDTRIP
360
425
  0
DICTIONARY
  5
426
330
2C
100
AcDbDictionary
280
     1
281
     1
  3
ACAD_XREC_ROUNDTRIP
360
427
  0
DICTIONARY
  5
428
330
2D
100
AcDbDictionary
280
     1
281
     1
  3
ACAD_XREC_ROUNDTRIP
360
429
  0
DICTIONARY
  5
42A
330
2E
100
AcDbDictionary
280
     1
281
     1
  3
ACAD_XREC_ROUNDTRIP
360
42B
  0
DICTIONARY
  5
43E
330
38
100
AcDbDictionary
280
     1
281
     1
  3
ACAD_XREC_ROUNDTRIP
360
43F
  0
DICTIONARY
  5
434
330
33
100
AcDbDictionary
280
     1
281
     1
  3
ACAD_XREC_ROUNDTRIP
360
435
  0
DICTIONARY
  5
43C
330
37
100
AcDbDictionary
280
     1
281
     1
  3
ACAD_XREC_ROUNDTRIP
360
43D
  0
XRECORD
  5
447
102
{ACAD_REACTORS
330
446
102
}
330
446
100
AcDbXrecord
280
     1
102
MATERIAL
148
0.0
149
0.0
149
0.0
 93
        0
 94
      127
282
     0
 72
     1
 77
     1
171
     1
175
     1
179
     1
273
     0
  0
XRECORD
  5
445
102
{ACAD_REACTORS
330
444
102
}
330
444
100
AcDbXrecord
280
     1
102
MATERIAL
148
0.0
149
0.0
149
0.0
 93
        0
 94
      127
282
     0
 72
     1
 77
     1
171
     1
175
     1
179
     1
273
     0
  0
XRECORD
  5
449
102
{ACAD_REACTORS
330
448
102
}
330
448
100
AcDbXrecord
280
     1
102
MATERIAL
148
0.0
149
0.0
149
0.0
 93
        0
 94
      127
282
     0
 72
     1
 77
     1
171
     1
175
     1
179
     1
273
     0
  0
XRECORD
  5
42D
102
{ACAD_REACTORS
330
42C
102
}
330
42C
100
AcDbXrecord
280
     1
102
RTVSPropertyOp0
 70
     1
102
RTVSPropertyOp1
 70
     1
102
RTVSPropertyOp2
 70
     1
102
RTVSPropertyOp3
 70
     1
102
RTVSPropertyOp4
 70
     1
102
RTVSPropertyOp5
 70
     1
102
RTVSPropertyOp6
 70
     1
102
RTVSPropertyOp7
 70
     1
102
RTVSPropertyOp8
 70
     1
102
RTVSPropertyOp9
 70
     1
102
RTVSPropertyOp10
 70
     1
102
RTVSPropertyOp11
 70
     1
102
RTVSPropertyOp12
 70
     1
102
RTVSPropertyOp13
 70
     1
102
RTVSPropertyOp14
 70
     1
102
RTVSPropertyOp15
 70
     1
102
RTVSPropertyOp16
 70
     1
102
RTVSPropertyOp17
 70
     1
102
RTVSPropertyOp18
 70
     1
102
RTVSPropertyOp19
 70
     1
102
RTVSPropertyOp20
 70
     1
102
RTVSPropertyOp21
 70
     1
102
RTVSPropertyOp22
 70
     1
102
RTVSPropertyOp23
 70
     1
102
RTVSPropertyOp24
 70
     1
102
RTVSPropertyOp25
 70
     1
102
RTVSPropertyOp26
 70
     1
102
RTVSPropertyOp27
 70
     1
102
RTVSPropertyOp28
 70
     1
102
RTVSPropertyOp29
 70
     1
102
RTVSPropertyOp30
 70
     1
102
RTVSPropertyOp31
 70
     1
102
RTVSPropertyOp32
 70
     1
  0
XRECORD
  5
431
102
{ACAD_REACTORS
330
430
102
}
330
430
100
AcDbXrecord
280
     1
102
RTVSPropertyOp0
 70
     1
102
RTVSPropertyOp1
 70
     1
102
RTVSPropertyOp2
 70
     1
102
RTVSPropertyOp3
 70
     1
102
RTVSPropertyOp4
 70
     1
102
RTVSPropertyOp5
 70
     1
102
RTVSPropertyOp6
 70
     1
102
RTVSPropertyOp7
 70
     1
102
RTVSPropertyOp8
 70
     1
102
RTVSPropertyOp9
 70
     1
102
RTVSPropertyOp10
 70
     1
102
RTVSPropertyOp11
 70
     1
102
RTVSPropertyOp12
 70
     1
102
RTVSPropertyOp13
 70
     1
102
RTVSPropertyOp14
 70
     1
102
RTVSPropertyOp15
 70
     1
102
RTVSPropertyOp16
 70
     1
102
RTVSPropertyOp17
 70
     1
102
RTVSPropertyOp18
 70
     1
102
RTVSPropertyOp19
 70
     1
102
RTVSPropertyOp20
 70
     1
102
RTVSPropertyOp21
 70
     1
102
RTVSPropertyOp22
 70
     1
102
RTVSPropertyOp23
 70
     1
102
RTVSPropertyOp24
 70
     1
102
RTVSPropertyOp25
 70
     1
102
RTVSPropertyOp26
 70
     1
102
RTVSPropertyOp27
 70
     1
102
RTVSPropertyOp28
 70
     1
102
RTVSPropertyOp29
 70
     1
102
RTVSPropertyOp30
 70
     1
102
RTVSPropertyOp31
 70
     1
102
RTVSPropertyOp32
 70
     1
  0
XRECORD
  5
42F
102
{ACAD_REACTORS
330
42E
102
}
330
42E
100
AcDbXrecord
280
     1
102
RTVSPropertyOp0
 70
     1
102
RTVSPropertyOp1
 70
     1
102
RTVSPropertyOp2
 70
     1
102
RTVSPropertyOp3
 70
     1
102
RTVSPropertyOp4
 70
     1
102
RTVSPropertyOp5
 70
     1
102
RTVSPropertyOp6
 70
     1
102
RTVSPropertyOp7
 70
     1
102
RTVSPropertyOp8
 70
     1
102
RTVSPropertyOp9
 70
     1
102
RTVSPropertyOp10
 70
     1
102
RTVSPropertyOp11
 70
     1
102
RTVSPropertyOp12
 70
     1
102
RTVSPropertyOp13
 70
     1
102
RTVSPropertyOp14
 70
     1
102
RTVSPropertyOp15
 70
     1
102
RTVSPropertyOp16
 70
     1
102
RTVSPropertyOp17
 70
     1
102
RTVSPropertyOp18
 70
     1
102
RTVSPropertyOp19
 70
     1
102
RTVSPropertyOp20
 70
     1
102
RTVSPropertyOp21
 70
     1
102
RTVSPropertyOp22
 70
     1
102
RTVSPropertyOp23
 70
     1
102
RTVSPropertyOp24
 70
     1
102
RTVSPropertyOp25
 70
     1
102
RTVSPropertyOp26
 70
     1
102
RTVSPropertyOp27
 70
     1
102
RTVSPropertyOp28
 70
     1
102
RTVSPropertyOp29
 70
     1
102
RTVSPropertyOp30
 70
     1
102
RTVSPropertyOp31
 70
     1
102
RTVSPropertyOp32
 70
     1
  0
XRECORD
  5
433
102
{ACAD_REACTORS
330
432
102
}
330
432
100
AcDbXrecord
280
     1
102
RTVSPropertyOp0
 70
     1
102
RTVSPropertyOp1
 70
     1
102
RTVSPropertyOp2
 70
     1
102
RTVSPropertyOp3
 70
     1
102
RTVSPropertyOp4
 70
     1
102
RTVSPropertyOp5
 70
     1
102
RTVSPropertyOp6
 70
     1
102
RTVSPropertyOp7
 70
     1
102
RTVSPropertyOp8
 70
     1
102
RTVSPropertyOp9
 70
     1
102
RTVSPropertyOp10
 70
     1
102
RTVSPropertyOp11
 70
     1
102
RTVSPropertyOp12
 70
     1
102
RTVSPropertyOp13
 70
     1
102
RTVSPropertyOp14
 70
     1
102
RTVSPropertyOp15
 70
     1
102
RTVSPropertyOp16
 70
     1
102
RTVSPropertyOp17
 70
     1
102
RTVSPropertyOp18
 70
     1
102
RTVSPropertyOp19
 70
     1
102
RTVSPropertyOp20
 70
     1
102
RTVSPropertyOp21
 70
     1
102
RTVSPropertyOp22
 70
     1
102
RTVSPropertyOp23
 70
     1
102
RTVSPropertyOp24
 70
     1
102
RTVSPropertyOp25
 70
     1
102
RTVSPropertyOp26
 70
     1
102
RTVSPropertyOp27
 70
     1
102
RTVSPropertyOp28
 70
     1
102
RTVSPropertyOp29
 70
     1
102
RTVSPropertyOp30
 70
     1
102
RTVSPropertyOp31
 70
     1
102
RTVSPropertyOp32
 70
     1
  0
XRECORD
  5
43B
102
{ACAD_REACTORS
330
43A
102
}
330
43A
100
AcDbXrecord
280
     1
102
RTVSPropertyOp0
 70
     1
102
RTVSPropertyOp1
 70
     1
102
RTVSPropertyOp2
 70
     1
102
RTVSPropertyOp3
 70
     1
102
RTVSPropertyOp4
 70
     1
102
RTVSPropertyOp5
 70
     1
102
RTVSPropertyOp6
 70
     1
102
RTVSPropertyOp7
 70
     1
102
RTVSPropertyOp8
 70
     1
102
RTVSPropertyOp9
 70
     1
102
RTVSPropertyOp10
 70
     1
102
RTVSPropertyOp11
 70
     1
102
RTVSPropertyOp12
 70
     1
102
RTVSPropertyOp13
 70
     1
102
RTVSPropertyOp14
 70
     1
102
RTVSPropertyOp15
 70
     1
102
RTVSPropertyOp16
 70
     1
102
RTVSPropertyOp17
 70
     1
102
RTVSPropertyOp18
 70
     1
102
RTVSPropertyOp19
 70
     1
102
RTVSPropertyOp20
 70
     1
102
RTVSPropertyOp21
 70
     1
102
RTVSPropertyOp22
 70
     1
102
RTVSPropertyOp23
 70
     1
102
RTVSPropertyOp24
 70
     1
102
RTVSPropertyOp25
 70
     1
102
RTVSPropertyOp26
 70
     1
102
RTVSPropertyOp27
 70
     1
102
RTVSPropertyOp28
 70
     1
102
RTVSPropertyOp29
 70
     1
102
RTVSPropertyOp30
 70
     1
102
RTVSPropertyOp31
 70
     1
102
RTVSPropertyOp32
 70
     1
  0
XRECORD
  5
443
102
{ACAD_REACTORS
330
442
102
}
330
442
100
AcDbXrecord
280
     1
102
RTVSPropertyOp0
 70
     1
102
RTVSPropertyOp1
 70
     1
102
RTVSPropertyOp2
 70
     1
102
RTVSPropertyOp3
 70
     1
102
RTVSPropertyOp4
 70
     1
102
RTVSPropertyOp5
 70
     1
102
RTVSPropertyOp6
 70
     1
102
RTVSPropertyOp7
 70
     1
102
RTVSPropertyOp8
 70
     1
102
RTVSPropertyOp9
 70
     1
102
RTVSPropertyOp10
 70
     1
102
RTVSPropertyOp11
 70
     1
102
RTVSPropertyOp12
 70
     1
102
RTVSPropertyOp13
 70
     1
102
RTVSPropertyOp14
 70
     1
102
RTVSPropertyOp15
 70
     1
102
RTVSPropertyOp16
 70
     1
102
RTVSPropertyOp17
 70
     1
102
RTVSPropertyOp18
 70
     1
102
RTVSPropertyOp19
 70
     1
102
RTVSPropertyOp20
 70
     1
102
RTVSPropertyOp21
 70
     1
102
RTVSPropertyOp22
 70
     1
102
RTVSPropertyOp23
 70
     1
102
RTVSPropertyOp24
 70
     1
102
RTVSPropertyOp25
 70
     1
102
RTVSPropertyOp26
 70
     1
102
RTVSPropertyOp27
 70
     1
102
RTVSPropertyOp28
 70
     1
102
RTVSPropertyOp29
 70
     1
102
RTVSPropertyOp30
 70
     1
102
RTVSPropertyOp31
 70
     1
102
RTVSPropertyOp32
 70
     1
  0
XRECORD
  5
437
102
{ACAD_REACTORS
330
436
102
}
330
436
100
AcDbXrecord
280
     1
102
RTVSPropertyOp0
 70
     1
102
RTVSPropertyOp1
 70
     1
102
RTVSPropertyOp2
 70
     1
102
RTVSPropertyOp3
 70
     1
102
RTVSPropertyOp4
 70
     1
102
RTVSPropertyOp5
 70
     1
102
RTVSPropertyOp6
 70
     1
102
RTVSPropertyOp7
 70
     1
102
RTVSPropertyOp8
 70
     1
102
RTVSPropertyOp9
 70
     1
102
RTVSPropertyOp10
 70
     1
102
RTVSPropertyOp11
 70
     1
102
RTVSPropertyOp12
 70
     1
102
RTVSPropertyOp13
 70
     1
102
RTVSPropertyOp14
 70
     1
102
RTVSPropertyOp15
 70
     1
102
RTVSPropertyOp16
 70
     1
102
RTVSPropertyOp17
 70
     1
102
RTVSPropertyOp18
 70
     1
102
RTVSPropertyOp19
 70
     1
102
RTVSPropertyOp20
 70
     1
102
RTVSPropertyOp21
 70
     1
102
RTVSPropertyOp22
 70
     1
102
RTVSPropertyOp23
 70
     1
102
RTVSPropertyOp24
 70
     1
102
RTVSPropertyOp25
 70
     1
102
RTVSPropertyOp26
 70
     1
102
RTVSPropertyOp27
 70
     1
102
RTVSPropertyOp28
 70
     1
102
RTVSPropertyOp29
 70
     1
102
RTVSPropertyOp30
 70
     1
102
RTVSPropertyOp31
 70
     1
102
RTVSPropertyOp32
 70
     1
  0
XRECORD
  5
439
102
{ACAD_REACTORS
330
438
102
}
330
438
100
AcDbXrecord
280
     1
102
RTVSPropertyOp0
 70
     1
102
RTVSPropertyOp1
 70
     1
102
RTVSPropertyOp2
 70
     1
102
RTVSPropertyOp3
 70
     1
102
RTVSPropertyOp4
 70
     1
102
RTVSPropertyOp5
 70
     1
102
RTVSPropertyOp6
 70
     1
102
RTVSPropertyOp7
 70
     1
102
RTVSPropertyOp8
 70
     1
102
RTVSPropertyOp9
 70
     1
102
RTVSPropertyOp10
 70
     1
102
RTVSPropertyOp11
 70
     1
102
RTVSPropertyOp12
 70
     1
102
RTVSPropertyOp13
 70
     1
102
RTVSPropertyOp14
 70
     1
102
RTVSPropertyOp15
 70
     1
102
RTVSPropertyOp16
 70
     1
102
RTVSPropertyOp17
 70
     1
102
RTVSPropertyOp18
 70
     1
102
RTVSPropertyOp19
 70
     1
102
RTVSPropertyOp20
 70
     1
102
RTVSPropertyOp21
 70
     1
102
RTVSPropertyOp22
 70
     1
102
RTVSPropertyOp23
 70
     1
102
RTVSPropertyOp24
 70
     1
102
RTVSPropertyOp25
 70
     1
102
RTVSPropertyOp26
 70
     1
102
RTVSPropertyOp27
 70
     1
102
RTVSPropertyOp28
 70
     1
102
RTVSPropertyOp29
 70
     1
102
RTVSPropertyOp30
 70
     1
102
RTVSPropertyOp31
 70
     1
102
RTVSPropertyOp32
 70
     1
  0
XRECORD
  5
441
102
{ACAD_REACTORS
330
440
102
}
330
440
100
AcDbXrecord
280
     1
102
RTVSPropertyOp0
 70
     1
102
RTVSPropertyOp1
 70
     1
102
RTVSPropertyOp2
 70
     1
102
RTVSPropertyOp3
 70
     1
102
RTVSPropertyOp4
 70
     1
102
RTVSPropertyOp5
 70
     1
102
RTVSPropertyOp6
 70
     1
102
RTVSPropertyOp7
 70
     1
102
RTVSPropertyOp8
 70
     1
102
RTVSPropertyOp9
 70
     1
102
RTVSPropertyOp10
 70
     1
102
RTVSPropertyOp11
 70
     1
102
RTVSPropertyOp12
 70
     1
102
RTVSPropertyOp13
 70
     1
102
RTVSPropertyOp14
 70
     1
102
RTVSPropertyOp15
 70
     1
102
RTVSPropertyOp16
 70
     1
102
RTVSPropertyOp17
 70
     1
102
RTVSPropertyOp18
 70
     1
102
RTVSPropertyOp19
 70
     1
102
RTVSPropertyOp20
 70
     1
102
RTVSPropertyOp21
 70
     1
102
RTVSPropertyOp22
 70
     1
102
RTVSPropertyOp23
 70
     1
102
RTVSPropertyOp24
 70
     1
102
RTVSPropertyOp25
 70
     1
102
RTVSPropertyOp26
 70
     1
102
RTVSPropertyOp27
 70
     1
102
RTVSPropertyOp28
 70
     1
102
RTVSPropertyOp29
 70
     1
102
RTVSPropertyOp30
 70
     1
102
RTVSPropertyOp31
 70
     1
102
RTVSPropertyOp32
 70
     1
  0
XRECORD
  5
425
102
{ACAD_REACTORS
330
424
102
}
330
424
100
AcDbXrecord
280
     1
102
RTVSPropertyOp0
 70
     1
102
RTVSPropertyOp1
 70
     1
102
RTVSPropertyOp2
 70
     1
102
RTVSPropertyOp3
 70
     1
102
RTVSPropertyOp4
 70
     1
102
RTVSPropertyOp5
 70
     1
102
RTVSPropertyOp6
 70
     1
102
RTVSPropertyOp7
 70
     1
102
RTVSPropertyOp8
 70
     1
102
RTVSPropertyOp9
 70
     1
102
RTVSPropertyOp10
 70
     1
102
RTVSPropertyOp11
 70
     1
102
RTVSPropertyOp12
 70
     1
102
RTVSPropertyOp13
 70
     1
102
RTVSPropertyOp14
 70
     1
102
RTVSPropertyOp15
 70
     1
102
RTVSPropertyOp16
 70
     1
102
RTVSPropertyOp17
 70
     1
102
RTVSPropertyOp18
 70
     1
102
RTVSPropertyOp19
 70
     1
102
RTVSPropertyOp20
 70
     1
102
RTVSPropertyOp21
 70
     1
102
RTVSPropertyOp22
 70
     1
102
RTVSPropertyOp23
 70
     1
102
RTVSPropertyOp24
 70
     1
102
RTVSPropertyOp25
 70
     1
102
RTVSPropertyOp26
 70
     1
102
RTVSPropertyOp27
 70
     1
102
RTVSPropertyOp28
 70
     1
102
RTVSPropertyOp29
 70
     1
102
RTVSPropertyOp30
 70
     1
102
RTVSPropertyOp31
 70
     1
102
RTVSPropertyOp32
 70
     1
  0
XRECORD
  5
427
102
{ACAD_REACTORS
330
426
102
}
330
426
100
AcDbXrecord
280
     1
102
RTVSPropertyOp0
 70
     1
102
RTVSPropertyOp1
 70
     1
102
RTVSPropertyOp2
 70
     1
102
RTVSPropertyOp3
 70
     1
102
RTVSPropertyOp4
 70
     1
102
RTVSPropertyOp5
 70
     1
102
RTVSPropertyOp6
 70
     1
102
RTVSPropertyOp7
 70
     1
102
RTVSPropertyOp8
 70
     1
102
RTVSPropertyOp9
 70
     1
102
RTVSPropertyOp10
 70
     1
102
RTVSPropertyOp11
 70
     1
102
RTVSPropertyOp12
 70
     1
102
RTVSPropertyOp13
 70
     1
102
RTVSPropertyOp14
 70
     1
102
RTVSPropertyOp15
 70
     1
102
RTVSPropertyOp16
 70
     1
102
RTVSPropertyOp17
 70
     1
102
RTVSPropertyOp18
 70
     1
102
RTVSPropertyOp19
 70
     1
102
RTVSPropertyOp20
 70
     1
102
RTVSPropertyOp21
 70
     1
102
RTVSPropertyOp22
 70
     1
102
RTVSPropertyOp23
 70
     1
102
RTVSPropertyOp24
 70
     1
102
RTVSPropertyOp25
 70
     1
102
RTVSPropertyOp26
 70
     1
102
RTVSPropertyOp27
 70
     1
102
RTVSPropertyOp28
 70
     1
102
RTVSPropertyOp29
 70
     1
102
RTVSPropertyOp30
 70
     1
102
RTVSPropertyOp31
 70
     1
102
RTVSPropertyOp32
 70
     1
  0
XRECORD
  5
429
102
{ACAD_REACTORS
330
428
102
}
330
428
100
AcDbXrecord
280
     1
102
RTVSPropertyOp0
 70
     1
102
RTVSPropertyOp1
 70
     1
102
RTVSPropertyOp2
 70
     1
102
RTVSPropertyOp3
 70
     1
102
RTVSPropertyOp4
 70
     1
102
RTVSPropertyOp5
 70
     1
102
RTVSPropertyOp6
 70
     1
102
RTVSPropertyOp7
 70
     1
102
RTVSPropertyOp8
 70
     1
102
RTVSPropertyOp9
 70
     1
102
RTVSPropertyOp10
 70
     1
102
RTVSPropertyOp11
 70
     1
102
RTVSPropertyOp12
 70
     1
102
RTVSPropertyOp13
 70
     1
102
RTVSPropertyOp14
 70
     1
102
RTVSPropertyOp15
 70
     1
102
RTVSPropertyOp16
 70
     1
102
RTVSPropertyOp17
 70
     1
102
RTVSPropertyOp18
 70
     1
102
RTVSPropertyOp19
 70
     1
102
RTVSPropertyOp20
 70
     1
102
RTVSPropertyOp21
 70
     1
102
RTVSPropertyOp22
 70
     1
102
RTVSPropertyOp23
 70
     1
102
RTVSPropertyOp24
 70
     1
102
RTVSPropertyOp25
 70
     1
102
RTVSPropertyOp26
 70
     1
102
RTVSPropertyOp27
 70
     1
102
RTVSPropertyOp28
 70
     1
102
RTVSPropertyOp29
 70
     1
102
RTVSPropertyOp30
 70
     1
102
RTVSPropertyOp31
 70
     1
102
RTVSPropertyOp32
 70
     1
  0
XRECORD
  5
42B
102
{ACAD_REACTORS
330
42A
102
}
330
42A
100
AcDbXrecord
280
     1
102
RTVSPropertyOp0
 70
     1
102
RTVSPropertyOp1
 70
     1
102
RTVSPropertyOp2
 70
     1
102
RTVSPropertyOp3
 70
     1
102
RTVSPropertyOp4
 70
     1
102
RTVSPropertyOp5
 70
     1
102
RTVSPropertyOp6
 70
     1
102
RTVSPropertyOp7
 70
     1
102
RTVSPropertyOp8
 70
     1
102
RTVSPropertyOp9
 70
     1
102
RTVSPropertyOp10
 70
     1
102
RTVSPropertyOp11
 70
     1
102
RTVSPropertyOp12
 70
     1
102
RTVSPropertyOp13
 70
     1
102
RTVSPropertyOp14
 70
     1
102
RTVSPropertyOp15
 70
     1
102
RTVSPropertyOp16
 70
     1
102
RTVSPropertyOp17
 70
     1
102
RTVSPropertyOp18
 70
     1
102
RTVSPropertyOp19
 70
     1
102
RTVSPropertyOp20
 70
     1
102
RTVSPropertyOp21
 70
     1
102
RTVSPropertyOp22
 70
     1
102
RTVSPropertyOp23
 70
     1
102
RTVSPropertyOp24
 70
     1
102
RTVSPropertyOp25
 70
     1
102
RTVSPropertyOp26
 70
     1
102
RTVSPropertyOp27
 70
     1
102
RTVSPropertyOp28
 70
     1
102
RTVSPropertyOp29
 70
     1
102
RTVSPropertyOp30
 70
     1
102
RTVSPropertyOp31
 70
     1
102
RTVSPropertyOp32
 70
     1
  0
XRECORD
  5
43F
102
{ACAD_REACTORS
330
43E
102
}
330
43E
100
AcDbXrecord
280
     1
102
RTVSPropertyOp0
 70
     1
102
RTVSPropertyOp1
 70
     1
102
RTVSPropertyOp2
 70
     1
102
RTVSPropertyOp3
 70
     1
102
RTVSPropertyOp4
 70
     1
102
RTVSPropertyOp5
 70
     1
102
RTVSPropertyOp6
 70
     1
102
RTVSPropertyOp7
 70
     1
102
RTVSPropertyOp8
 70
     1
102
RTVSPropertyOp9
 70
     1
102
RTVSPropertyOp10
 70
     1
102
RTVSPropertyOp11
 70
     1
102
RTVSPropertyOp12
 70
     1
102
RTVSPropertyOp13
 70
     1
102
RTVSPropertyOp14
 70
     1
102
RTVSPropertyOp15
 70
     1
102
RTVSPropertyOp16
 70
     1
102
RTVSPropertyOp17
 70
     1
102
RTVSPropertyOp18
 70
     1
102
RTVSPropertyOp19
 70
     1
102
RTVSPropertyOp20
 70
     1
102
RTVSPropertyOp21
 70
     1
102
RTVSPropertyOp22
 70
     1
102
RTVSPropertyOp23
 70
     1
102
RTVSPropertyOp24
 70
     1
102
RTVSPropertyOp25
 70
     1
102
RTVSPropertyOp26
 70
     1
102
RTVSPropertyOp27
 70
     1
102
RTVSPropertyOp28
 70
     1
102
RTVSPropertyOp29
 70
     1
102
RTVSPropertyOp30
 70
     1
102
RTVSPropertyOp31
 70
     1
102
RTVSPropertyOp32
 70
     1
  0
XRECORD
  5
435
102
{ACAD_REACTORS
330
434
102
}
330
434
100
AcDbXrecord
280
     1
102
RTVSPropertyOp0
 70
     1
102
RTVSPropertyOp1
 70
     1
102
RTVSPropertyOp2
 70
     1
102
RTVSPropertyOp3
 70
     1
102
RTVSPropertyOp4
 70
     1
102
RTVSPropertyOp5
 70
     1
102
RTVSPropertyOp6
 70
     1
102
RTVSPropertyOp7
 70
     1
102
RTVSPropertyOp8
 70
     1
102
RTVSPropertyOp9
 70
     1
102
RTVSPropertyOp10
 70
     1
102
RTVSPropertyOp11
 70
     1
102
RTVSPropertyOp12
 70
     1
102
RTVSPropertyOp13
 70
     1
102
RTVSPropertyOp14
 70
     1
102
RTVSPropertyOp15
 70
     1
102
RTVSPropertyOp16
 70
     1
102
RTVSPropertyOp17
 70
     1
102
RTVSPropertyOp18
 70
     1
102
RTVSPropertyOp19
 70
     1
102
RTVSPropertyOp20
 70
     1
102
RTVSPropertyOp21
 70
     1
102
RTVSPropertyOp22
 70
     1
102
RTVSPropertyOp23
 70
     1
102
RTVSPropertyOp24
 70
     1
102
RTVSPropertyOp25
 70
     1
102
RTVSPropertyOp26
 70
     1
102
RTVSPropertyOp27
 70
     1
102
RTVSPropertyOp28
 70
     1
102
RTVSPropertyOp29
 70
     1
102
RTVSPropertyOp30
 70
     1
102
RTVSPropertyOp31
 70
     1
102
RTVSPropertyOp32
 70
     1
  0
XRECORD
  5
43D
102
{ACAD_REACTORS
330
43C
102
}
330
43C
100
AcDbXrecord
280
     1
102
RTVSPropertyOp0
 70
     1
102
RTVSPropertyOp1
 70
     1
102
RTVSPropertyOp2
 70
     1
102
RTVSPropertyOp3
 70
     1
102
RTVSPropertyOp4
 70
     1
102
RTVSPropertyOp5
 70
     1
102
RTVSPropertyOp6
 70
     1
102
RTVSPropertyOp7
 70
     1
102
RTVSPropertyOp8
 70
     1
102
RTVSPropertyOp9
 70
     1
102
RTVSPropertyOp10
 70
     1
102
RTVSPropertyOp11
 70
     1
102
RTVSPropertyOp12
 70
     1
102
RTVSPropertyOp13
 70
     1
102
RTVSPropertyOp14
 70
     1
102
RTVSPropertyOp15
 70
     1
102
RTVSPropertyOp16
 70
     1
102
RTVSPropertyOp17
 70
     1
102
RTVSPropertyOp18
 70
     1
102
RTVSPropertyOp19
 70
     1
102
RTVSPropertyOp20
 70
     1
102
RTVSPropertyOp21
 70
     1
102
RTVSPropertyOp22
 70
     1
102
RTVSPropertyOp23
 70
     1
102
RTVSPropertyOp24
 70
     1
102
RTVSPropertyOp25
 70
     1
102
RTVSPropertyOp26
 70
     1
102
RTVSPropertyOp27
 70
     1
102
RTVSPropertyOp28
 70
     1
102
RTVSPropertyOp29
 70
     1
102
RTVSPropertyOp30
 70
     1
102
RTVSPropertyOp31
 70
     1
102
RTVSPropertyOp32
 70
     1
  0
ENDSEC
  0
EOF
